当前位置: 首页 >> 港台电影 >> 南海十三郎[国语音轨/中文字幕].The.Mad.Phoenix.1997.1080p.BluRay.x265.10bit.MNHD 6.37GB >> 正文

南海十三郎[国语音轨/中文字幕].The.Mad.Phoenix.1997.1080p.BluRay.x265.10bit.MNHD 6.37GB

2021年08月03日 10:29:36     电影发布:来源于网络     电影分类:港台电影     评论(0)    

南海十三郎[国语音轨/中文字幕].The.Mad.Phoenix.1997.1080p.BluRay.x265.10bit.MNHD 6.37GB 传记 爱情片 剧情片 港台电影  第1张

◎译 名 南海十三郎 / The Mad Phoenix

◎年 代 1997

◎产 地 中国香港

◎类 别 剧情 / 爱情 / 传记

◎语 言 粤语

◎上映日期 1997-05-15(中国香港)

◎IMDb链接 https://www.imdb.com/title/tt0134836/

◎豆瓣评分 9.3/10 (46531人评价)

◎豆瓣链接 https://movie.douban.com/subject/1303913/

◎片 长 110分钟

◎导 演 高志森 Clifton Ko (id:1281025)

◎编 剧 杜国威 Raymond To (id:1299321)

◎演 员 谢君豪 Kwan-Ho Tse (id:1157914)

苏玉华 Yuk-Wah So (id:1017823)

吴绮莉 Yi-Lei Ng (id:1313691)

黄霑 James Wong (id:1008091)

潘灿良 Chan-Leung Poon (id:1294712)

张国权 Daniel Chueng Kwok-Kuen (id:1316608)

陈志辉 Chi Fai Chan (id:1312869)

陈琪 June Chan (id:1347884)

袁富华 Fu-wah Yuen (id:1359508)

邱万城 Samuel Yau (id:1371631)

周志辉 Chi-Fai Chow (id:1343510)

田二喜 Erxi Tian (id:1321267)

梁汉威 Hon-Wai Leung (id:1343511)

罗慧虹 Wai-Hung Lo (id:1418377)

司马华龙 Wah Lung Szema (id:1379074)

何云 Yun Ho (id:1417193)

邓祥 Tang Cheung (id:1431712)

高志森 Clifton Ko (id:1281025)

高志森 Clifton Ko (id:1281025)

雷楚雄 Bill Lui (id:1290436)

朱日红 Yat-Hung Chu (id:1330740)

邹文怀 Raymond Chow (id:1016883)

朱日红 Yat-Hung Chu (id:1330740)

◎标 签 香港 / 南海十三郎 / 谢君豪 / 传记 / 香港电影 / 经典 / 剧情 / 1997

◎简 介

开片是说书人因聚众滋事,被警察(黄霑 饰)带到了警局问话,借说书人之口讲述了粤剧金牌编剧——南海十三郎艺海浮沉的一生。作为江太史公的十三子,江誉镠(谢君豪 饰)自由顽皮,出入名流场所。一次偶然的舞会,他遇到了上海的千金小姐莉莉(吴绮莉 饰),然而双方有缘相逢,无 份结亲。后来,他跟随她来到上海,竟落得穷困潦倒。

2年后,回到了广东的家中,他已被学校除名。当时太史公已经年事已高,他便天天去看戏,从不受戏班老板薛老五赏识,到后来成为御用编剧一鸣惊人,人送绰号——南海十三郎。然而,时局动荡,他到了江西写剧本慰劳前线战士,因看不过同行媚俗之作,愤然出手,不欢而散。这时一次车祸,让他与昔日恋人重逢,可惜她已嫁给老外。十三郎郁郁寡欢,后来入寺修行,却在一次代人祈福的对话中,得知了自己家道中落的败局,他疯了……

◎获奖情况 (共9项)

第34届台北金马影展 (1997)

金马奖 最佳剧情片(提名)

金马奖 最佳导演(提名)

└──高志森 (id:1281025)

金马奖 最佳男主角

└──谢君豪 (id:1157914)

金马奖 最佳男配角(提名)

└──潘灿良 (id:1294712)

金马奖 最佳改编剧本

└──杜国威 (id:1299321)

金马奖 最佳剪辑

└──高志森 (id:1281025)

第17届香港电影金像奖 (1998)

最佳编剧

└──杜国威 (id:1299321)

最佳男主角(提名)

└──谢君豪 (id:1157914)

最佳男配角(提名)

└──潘灿良 (id:1294712)

  1. ##### MediaInfo ######

  2. General

  3. Unique ID : 159549026044759366366649511169549067714 (0x78080651CE0704DAEB16FCE1FB56E5C2)

  4. Complete name : [email protected]OM.mkv

  5. Format : Matroska

  6. Format version : Version 4

  7. File size : 6.37 GiB

  8. Duration : 1 h 50 min

  9. Overall bit rate : 8 275 kb/s

  10. Movie name : The Mad Phoenix [1997] BluRay 1080p [email protected]

  11. Encoded date : UTC 2021-08-01 10:10:04

  12. Writing application : mkvmerge v55.0.0 ('Waiting For Space') 64-bit

  13. Writing library : libebml v1.4.2 + libmatroska v1.6.4


  14. Video

  15. ID : 1

  16. Format : HEVC

  17. Format/Info : High Efficiency Video Coding

  18. Format profile : Main [email protected]@High

  19. Codec ID : V_MPEGH/ISO/HEVC

  20. Duration : 1 h 50 min

  21. Bit rate : 7 188 kb/s

  22. Width : 1 920 pixels

  23. Height : 1 080 pixels

  24. Display aspect ratio : 16:9

  25. Frame rate mode : Constant

  26. Frame rate : 24.000 FPS

  27. Color space : YUV

  28. Chroma subsampling : 4:2:0

  29. Bit depth : 10 bits

  30. Bits/(Pixel*Frame) : 0.144

  31. Stream size : 5.54 GiB (87%)

  32. Title : [email protected]

  33. Writing library : x265 3.5+1-f0c1022b6:[Linux][GCC 9.3.0][64 bit] 10bit

  34. Encoding settings : cpuid=533541111039 / frame-threads=3 / wpp / pmode / no-pme / no-psnr / no-ssim / log-level=2 / input-csp=1 / input-res=1920x1080 / interlace=0 / total-frames=158781 / level-idc=0 / high-tier=1 / uhd-bd=0 / ref=4 / no-allow-non-conformance / no-repeat-headers / annexb / no-aud / no-hrd / info / hash=0 / no-temporal-layers / no-open-gop / min-keyint=1 / keyint=250 / gop-lookahead=0 / bframes=6 / b-adapt=2 / b-pyramid / bframe-bias=0 / rc-lookahead=80 / lookahead-slices=0 / NTMzNTQ=uuDQuD2mJt9fsCf / scenecut=40 / hist-scenecut=0 / radl=0 / no-splice / no-intra-refresh / ctu=32 / min-cu-size=8 / no-rect / no-amp / max-tu-size=32 / tu-inter-depth=4 / tu-intra-depth=4 / limit-tu=0 / rdoq-level=2 / dynamic-rd=0.00 / no-ssim-rd / signhide / no-tskip / nr-intra=0 / nr-inter=0 / no-constrained-intra / strong-intra-smoothing / max-merge=5 / limit-refs=0 / no-limit-modes / me=3 / subme=7 / merange=57 / temporal-mvp / no-frame-dup / no-hme / weightp / weightb / no-analyze-src-pics / deblock=-3:-3 / no-sao / no-sao-non-deblock / rd=4 / selective-sao=0 / no-early-skip / no-rskip / no-fast-intra / no-tskip-fast / no-cu-lossless / b-intra / no-splitrd-skip / rdpenalty=0 / psy-rd=1.50 / psy-rdoq=1.00 / no-rd-refine / no-lossless / cbqpoffs=-2 / crqpoffs=-2 / rc=crf / crf=20.8 / qcomp=0.65 / qpstep=4 / stats-write=0 / stats-read=0 / vbv-maxrate=160000 / vbv-bufsize=160000 / vbv-init=0.9 / min-vbv-fullness=50.0 / max-vbv-fullness=80.0 / crf-max=0.0 / crf-min=0.0 / ipratio=1.30 / pbratio=1.20 / aq-mode=1 / aq-strength=1.00 / no-cutree / zone-count=0 / no-strict-cbr / qg-size=8 / no-rc-grain / qpmax=69 / qpmin=0 / no-const-vbv / sar=0 / overscan=0 / videoformat=5 / range=0 / colorprim=1 / transfer=1 / colormatrix=1 / chromaloc=0 / display-window=0 / cll=0,0 / min-luma=0 / max-luma=1023 / log2-max-poc-lsb=8 / vui-timing-info / vui-hrd-info / slices=1 / no-opt-qp-pps / no-opt-ref-list-length-pps / no-multi-pass-opt-rps / scenecut-bias=0.05 / hist-threshold=0.03 / no-opt-cu-delta-qp / no-aq-motion / no-hdr10 / no-hdr10-opt / no-dhdr10-opt / no-idr-recovery-sei / analysis-reuse-level=0 / analysis-save-reuse-level=0 / analysis-load-reuse-level=0 / scale-factor=0 / refine-intra=0 / refine-inter=0 / refine-mv=1 / refine-ctu-distortion=0 / no-limit-sao / ctu-info=0 / no-lowpass-dct / refine-analysis-type=0 / copy-pic=1 / max-ausize-factor=1.0 / no-dynamic-refine / no-single-sei / no-hevc-aq / no-svt / no-field / qp-adaptation-range=1.00 / scenecut-aware-qp=0conformance-window-offsets / right=0 / bottom=0 / NTMzNTQ= / decoder-max-rate=0 / no-vbv-live-multi-pass

  35. Default : Yes

  36. Forced : No

  37. Color range : Limited

  38. Color primaries : BT.709

  39. Transfer characteristics : BT.709

  40. Matrix coefficients : BT.709


  41. Audio #1

  42. ID : 2

  43. Format : AC-3

  44. Format/Info : Audio Coding 3

  45. Commercial name : Dolby Digital

  46. Codec ID : A_AC3

  47. Duration : 1 h 50 min

  48. Bit rate mode : Constant

  49. Bit rate : 640 kb/s

  50. Channel(s) : 6 channels

  51. Channel layout : L R C LFE Ls Rs

  52. Sampling rate : 48.0 kHz

  53. Frame rate : 31.250 FPS (1536 SPF)

  54. Compression mode : Lossy

  55. Stream size : 505 MiB (8%)

  56. Language : Chinese

  57. Service kind : Complete Main

  58. Default : Yes

  59. Forced : No


  60. Audio #2

  61. ID : 3

  62. Format : AC-3

  63. Format/Info : Audio Coding 3

  64. Commercial name : Dolby Digital

  65. Codec ID : A_AC3

  66. Duration : 1 h 50 min

  67. Bit rate mode : Constant

  68. Bit rate : 384 kb/s

  69. Channel(s) : 2 channels

  70. Channel layout : L R

  71. Sampling rate : 48.0 kHz

  72. Frame rate : 31.250 FPS (1536 SPF)

  73. Compression mode : Lossy

  74. Stream size : 303 MiB (5%)

  75. Language : Chinese

  76. Service kind : Complete Main

  77. Default : No

  78. Forced : No


  79. Text #1

  80. ID : 4

  81. Format : PGS

  82. Muxing mode : zlib

  83. Codec ID : S_HDMV/PGS

  84. Codec ID/Info : Picture based subtitle format used on BDs/HD-DVDs

  85. Duration : 1 h 46 min

  86. Bit rate : 43.1 kb/s

  87. Count of elements : 3053

  88. Stream size : 32.9 MiB (1%)

  89. Title : CHT

  90. Language : Chinese

  91. Default : No

  92. Forced : No


  93. Text #2

  94. ID : 5

  95. Format : PGS

  96. Muxing mode : zlib

  97. Codec ID : S_HDMV/PGS

  98. Codec ID/Info : Picture based subtitle format used on BDs/HD-DVDs

  99. Duration : 1 h 46 min

  100. Bit rate : 40.0 kb/s

  101. Count of elements : 3053

  102. Stream size : 30.5 MiB (0%)

  103. Title : CHS

  104. Language : Chinese

  105. Default : Yes

  106. Forced : No


  107. Text #3

  108. ID : 6

  109. Format : PGS

  110. Muxing mode : zlib

  111. Codec ID : S_HDMV/PGS

  112. Codec ID/Info : Picture based subtitle format used on BDs/HD-DVDs

  113. Duration : 1 h 46 min

  114. Bit rate : 47.9 kb/s

  115. Count of elements : 3053

  116. Stream size : 36.6 MiB (1%)

  117. Title : ENG

  118. Language : English

  119. Default : No

  120. Forced : No


  121. Menu

  122. 00:00:00.000 : en:Chapter 01

  123. 00:08:47.417 : en:Chapter 02

  124. 00:15:15.958 : en:Chapter 03

  125. 00:26:23.417 : en:Chapter 04

  126. 00:33:13.792 : en:Chapter 05

  127. 00:42:16.917 : en:Chapter 06

  128. 00:55:43.333 : en:Chapter 07

  129. 01:10:56.167 : en:Chapter 08

  130. 01:20:35.167 : en:Chapter 09

  131. 01:28:39.750 : en:Chapter 10

  132. 01:37:36.583 : en:Chapter 11

  133. 01:45:45.458 : en:Chapter 12


文件下载


除非特别注明,本文『南海十三郎[国语音轨/中文字幕].The.Mad.Phoenix.1997.1080p.BluRay.x265.10bit.MNHD 6.37GB』来源于互联网机器人自动抓取,非本站原创。 浮游电影网不对本文拥有版权,如有侵犯,请联系邮箱:fuyouu#yandex.com[#换成@]投诉。我们会在15个工作日内删除。 但烦请转载时请标明出处:“本文转载于『浮游电影网』,原文地址:https://www.fuyouu.com/13329.html

评论吧骚年!

发表你的见解   

昵称*

E-mail*(建议输入,以便收到博主回复的提示邮件)

验证码*

您可以使用eMule或eMule Mod(Windows)、aMule(Win、Linux、Mac)等软件下载eD2k链接。。
eMule收藏集(.emulecollection)文件是您选中的所有链接的列表文件。eMule可以直接下载它们。
按住SHIFT键选择可以选中多个选择框。
可用文件名和大小选择器来选择文件。
文件名选择器帮您根据文件名称或后缀来选择文件。不分大小写。
符号使用:
和:空格( )、+
不包含:-
或:|
转义:一对英文引号("");
匹配开头:^
匹配结尾:$
例如:
选中所有名称中包含有“eMule”或“0.49c”字眼,但不包含有“exe”字眼的:emule|0.49c -exe
选中所有名称的开头是“eMule”,结尾是“0.49c”的:^emule 0.49c$
选中所有名称中带有“eMule 0.49c”的(必须是“eMule 0.49c”,中间没有别的字符,不能是“eMule fake 0.49c”),需要转义:"emule 0.49c"
大小选择器帮您根据文件大小选择文件。