当前位置: 首页 >> 国产电视剧 >> 玲珑狼心[全24集][国语内封英文软字幕.无水印][AMZN.WEB-DL-MKV][1080P][TEPES][亚马逊版] >> 正文

玲珑狼心[全24集][国语内封英文软字幕.无水印][AMZN.WEB-DL-MKV][1080P][TEPES][亚马逊版]

2021年08月02日 11:21:16     电影发布:来源于网络     电影分类:国产电视剧     评论(0)    

玲珑狼心[全24集][国语内封英文软字幕.无水印][AMZN.WEB DL MKV][1080P][TEPES][亚马逊版] 古装片 国产电视剧  第1张


◎译 名 The Wolf Princess

◎片 名 玲珑狼心

◎年 代 2021

◎产 地 中国大陆

◎类 别 古装

◎语 言 汉语普通话

◎上映日期 2021-02-15(中国大陆)

◎IMDb评分 0/10 from 0 users

◎IMDb链接 https://www.imdb.com/title/tt12477924/

◎豆瓣评分 0/10 from 0 users

◎豆瓣链接 https://movie.douban.com/subject/34938155

◎集 数 24

◎片 长 43分钟

◎导 演 高林豹 Danny Ko

◎编 剧 李楠 Nan Li / 侯明洁 Mingjie Hou / 张若岩 Yanyan Zhang

◎主 演 谷嘉诚 Jason Gu

康宁 Ning Kang

彭楚粤 Chuyue Peng

盛蕙子 Huizi Sheng

赵子麒 Ziqi Zhao

高基才 Jicai Gao

黄千硕 Qianshuo Huang

余凯宁 Kaining Yu

吴恒 Heng Wu

林津伊 Jinyi Lin

张佳琳 Jialin Zhang

孙语涵 Yuhan Sun


◎标 签 古装 | 甜宠 | 谷嘉诚 | 国产电视剧 | 电视剧 | 彭楚粤 | 中国大陆 | 国产


◎简 介


桀骜不驯的西厥校尉炎青,双重人格的南楚郡主玲珑,看似毫不相干的两人意外相遇,却在相处中渐生感情。炎青情根深种,原本冷面少言的狼血公子化身“忠犬”,展开各种花式宠爱。而两个注定羁绊的人,正悄然接近一个隐藏多年的狼族秘密……


玲珑狼心[全24集][国语内封英文软字幕.无水印][AMZN.WEB DL MKV][1080P][TEPES][亚马逊版] 古装片 国产电视剧  第2张

玲珑狼心[全24集][国语内封英文软字幕.无水印][AMZN.WEB DL MKV][1080P][TEPES][亚马逊版] 古装片 国产电视剧  第3张

玲珑狼心[全24集][国语内封英文软字幕.无水印][AMZN.WEB DL MKV][1080P][TEPES][亚马逊版] 古装片 国产电视剧  第4张


Video

ID : 1

Format : AVC

Format/Info : Advanced Video Codec

Format profile : [email protected]

Format settings : CABAC / 4 Ref Frames

Format settings, CABAC : Yes

Format settings, Reference frames : 4 frames

Codec ID : V_MPEG4/ISO/AVC

Duration : 45 min 50 s

Bit rate mode : Constant

Bit rate : 10 000 kb/s

Width : 1 920 pixels

Height : 1 080 pixels

Display aspect ratio : 16:9

Frame rate mode : Constant

Frame rate : 25.000 FPS

Color space : YUV

Chroma subsampling : 4:2:0

Bit depth : 8 bits

Scan type : Progressive

Bits/(Pixel*Frame) : 0.193

Stream size : 3.12 GiB (98%)

Default : Yes

Forced : No

Color range : Limited

Color primaries : BT.709

Transfer characteristics : BT.709

Matrix coefficients : BT.709

Audio

ID : 2

Format : E-AC-3

Format/Info : Enhanced AC-3

Commercial name : Dolby Digital Plus

Codec ID : A_EAC3

Duration : 45 min 50 s

Bit rate mode : Constant

Bit rate : 224 kb/s

Channel(s) : 2 channels

Channel layout : L R

Sampling rate : 48.0 kHz

Frame rate : 31.250 FPS (1536 SPF)

Compression mode : Lossy

Stream size : 73.4 MiB (2%)

Language : Chinese

Service kind : Complete Main

Default : Yes

Forced : No

Text

ID : 3

Format : UTF-8

Codec ID : S_TEXT/UTF8

Codec ID/Info : UTF-8 Plain Text

Duration : 41 min 38 s

Bit rate : 69 b/s

Count of elements : 944

Stream size : 21.2 KiB (0%)

Title : English (SDH)

Language : English

Default : No

Forced : No



文件下载


除非特别注明,本文『玲珑狼心[全24集][国语内封英文软字幕.无水印][AMZN.WEB-DL-MKV][1080P][TEPES][亚马逊版]』来源于互联网机器人自动抓取,非本站原创。 浮游电影网不对本文拥有版权,如有侵犯,请联系邮箱:fuyouu#yandex.com[#换成@]投诉。我们会在15个工作日内删除。 但烦请转载时请标明出处:“本文转载于『浮游电影网』,原文地址:https://www.fuyouu.com/13321.html

评论吧骚年!

发表你的见解   

昵称*

E-mail*(建议输入,以便收到博主回复的提示邮件)

验证码*

您可以使用eMule或eMule Mod(Windows)、aMule(Win、Linux、Mac)等软件下载eD2k链接。。
eMule收藏集(.emulecollection)文件是您选中的所有链接的列表文件。eMule可以直接下载它们。
按住SHIFT键选择可以选中多个选择框。
可用文件名和大小选择器来选择文件。
文件名选择器帮您根据文件名称或后缀来选择文件。不分大小写。
符号使用:
和:空格( )、+
不包含:-
或:|
转义:一对英文引号("");
匹配开头:^
匹配结尾:$
例如:
选中所有名称中包含有“eMule”或“0.49c”字眼,但不包含有“exe”字眼的:emule|0.49c -exe
选中所有名称的开头是“eMule”,结尾是“0.49c”的:^emule 0.49c$
选中所有名称中带有“eMule 0.49c”的(必须是“eMule 0.49c”,中间没有别的字符,不能是“eMule fake 0.49c”),需要转义:"emule 0.49c"
大小选择器帮您根据文件大小选择文件。