当前位置: 首页 >> 欧美电影 >> 爱情度假村[简繁字幕]Resort.to.Love.2021.Netflix.WEB-DL.1080p.x264.DDP5.1-迅雷下载 10.61GB >> 正文

爱情度假村[简繁字幕]Resort.to.Love.2021.Netflix.WEB-DL.1080p.x264.DDP5.1-迅雷下载 10.61GB

2021年08月02日 11:04:01     电影发布:来源于网络     电影分类:欧美电影     评论(0)    

爱情度假村[简繁字幕]Resort.to.Love.2021.Netflix.WEB DL.1080p.x264.DDP5.1 迅雷下载 10.61GB 爱情片 喜剧片 欧美电影  第1张

◎译 名 爱情度假村 / Tek ?are A?k

◎片 名 Resort to Love

◎年 代 2021

◎产 地 美国

◎类 别 喜剧 / 爱情

◎语 言 英语

◎上映日期 2021-07-29(加拿大)

◎IMDb链接 https://www.imdb.com/title/tt12929990/

◎豆瓣链接 https://movie.douban.com/subject/35453903/

◎导 演 土田史蒂芬 Steven K.Tsuchida (id:1376171)

◎演 员 克里斯蒂娜·米利安 Christina Milian (id:1027246)

辛奎·沃尔斯 Sinqua Walls (id:1392832)

亚历山大·霍吉 Alexander Hodge (id:1437899)

杰·费罗尔 Jay Pharoah (id:1316693)

杰瑞尔·普雷斯科特 Jeryl Prescott (id:1324389)

TJ·鲍尔 Tj Power (id:1356697)

杰里米·博阿多 Jeremy Boado (id:1434062)

◎简 介

这部浪漫爱情喜剧围绕雄心勃勃的流行歌手埃丽卡(克里斯蒂娜·米利安饰)展开,由于音乐事业崩溃,她只能在豪华的毛里求斯度假胜地演出,然而这场表演是她前未婚夫婚礼上的助兴节目。埃丽卡试图对准新娘贝弗利隐瞒这段过去,却发现自己对前未婚夫贾森(杰·费罗尔饰)余情未了,尽管贾森的哥哥凯莱布(辛奎·沃尔斯饰)试图阻止两人再度相恋。在这个探索缘分与家庭的幽默浪漫故事中,问题很快变成了:埃丽卡会在贝弗利的婚礼上演唱吗?还是在她自己的婚礼上演唱?

  1. ##### MediaInfo ######

  2. General

  3. Unique ID : 128537699638914942699667318750647947018 (0x60B375E17992BF198097744B3D200F0A)

  4. Complete name : 爱情度假村.Resort.to.Love.2021.Netflix.WEB-DL.1080p.x264.DDP5.1-10006@BBQDDQ.COM.mkv

  5. Format : Matroska

  6. Format version : Version 4

  7. File size : 10.6 GiB

  8. Duration : 1 h 41 min

  9. Overall bit rate : 14.9 Mb/s

  10. Encoded date : UTC 2021-07-31 06:57:47

  11. Writing application : mkvmerge v58.0.0 ('Supper's Ready') 64-bit

  12. Writing library : libebml v1.4.2 + libmatroska v1.6.4


  13. Video

  14. ID : 1

  15. Format : AVC

  16. Format/Info : Advanced Video Codec

  17. Format profile : High@L4

  18. Format settings : CABAC / 4 Ref Frames

  19. Format settings, CABAC : Yes

  20. Format settings, Reference frames : 4 frames

  21. Codec ID : V_MPEG4/ISO/AVC

  22. Duration : 1 h 41 min

  23. Bit rate : 5 201 kb/s

  24. Width : 1 920 pixels

  25. Height : 1 080 pixels

  26. Display aspect ratio : 16:9

  27. Frame rate mode : Constant

  28. Frame rate : 24.000 FPS

  29. Color space : YUV

  30. Chroma subsampling : 4:2:0

  31. Bit depth : 8 bits

  32. Scan type : Progressive

  33. Bits/(Pixel*Frame) : 0.105

  34. Stream size : 3.69 GiB (35%)

  35. Default : Yes

  36. Forced : No


  37. Audio #1

  38. ID : 2

  39. Format : E-AC-3 JOC

  40. Format/Info : Enhanced AC-3 with Joint Object Coding

  41. Commercial name : Dolby Digital Plus with Dolby Atmos

  42. Codec ID : A_EAC3

  43. Duration : 1 h 41 min

  44. Bit rate mode : Constant

  45. Bit rate : 768 kb/s

  46. Channel(s) : 6 channels

  47. Channel layout : L R C LFE Ls Rs

  48. Sampling rate : 48.0 kHz

  49. Frame rate : 31.250 FPS (1536 SPF)

  50. Compression mode : Lossy

  51. Delay relative to video : -83 ms

  52. Stream size : 559 MiB (5%)

  53. Language : English

  54. Service kind : Complete Main

  55. Default : Yes

  56. Forced : No

  57. Complexity index : 16

  58. Number of dynamic objects : 15

  59. Bed channel count : 1 channel

  60. Bed channel configuration : LFE


  61. Audio #2

  62. ID : 3

  63. Format : E-AC-3

  64. Format/Info : Enhanced AC-3

  65. Commercial name : Dolby Digital Plus

  66. Codec ID : A_EAC3

  67. Duration : 1 h 41 min

  68. Bit rate mode : Constant

  69. Bit rate : 640 kb/s

  70. Channel(s) : 6 channels

  71. Channel layout : L R C LFE Ls Rs

  72. Sampling rate : 48.0 kHz

  73. Frame rate : 31.250 FPS (1536 SPF)

  74. Compression mode : Lossy

  75. Delay relative to video : -83 ms

  76. Stream size : 465 MiB (4%)

  77. Language : German

  78. Service kind : Complete Main

  79. Default : Yes

  80. Forced : No


  81. Audio #3

  82. ID : 4

  83. Format : E-AC-3

  84. Format/Info : Enhanced AC-3

  85. Commercial name : Dolby Digital Plus

  86. Codec ID : A_EAC3

  87. Duration : 1 h 41 min

  88. Bit rate mode : Constant

  89. Bit rate : 640 kb/s

  90. Channel(s) : 6 channels

  91. Channel layout : L R C LFE Ls Rs

  92. Sampling rate : 48.0 kHz

  93. Frame rate : 31.250 FPS (1536 SPF)

  94. Compression mode : Lossy

  95. Delay relative to video : -83 ms

  96. Stream size : 465 MiB (4%)

  97. Language : French

  98. Service kind : Complete Main

  99. Default : Yes

  100. Forced : No


  101. Audio #4

  102. ID : 5

  103. Format : E-AC-3

  104. Format/Info : Enhanced AC-3

  105. Commercial name : Dolby Digital Plus

  106. Codec ID : A_EAC3

  107. Duration : 1 h 41 min

  108. Bit rate mode : Constant

  109. Bit rate : 640 kb/s

  110. Channel(s) : 6 channels

  111. Channel layout : L R C LFE Ls Rs

  112. Sampling rate : 48.0 kHz

  113. Frame rate : 31.250 FPS (1536 SPF)

  114. Compression mode : Lossy

  115. Delay relative to video : -83 ms

  116. Stream size : 465 MiB (4%)

  117. Language : Italian

  118. Service kind : Complete Main

  119. Default : Yes

  120. Forced : No


  121. Audio #5

  122. ID : 6

  123. Format : E-AC-3

  124. Format/Info : Enhanced AC-3

  125. Commercial name : Dolby Digital Plus

  126. Codec ID : A_EAC3

  127. Duration : 1 h 41 min

  128. Bit rate mode : Constant

  129. Bit rate : 640 kb/s

  130. Channel(s) : 6 channels

  131. Channel layout : L R C LFE Ls Rs

  132. Sampling rate : 48.0 kHz

  133. Frame rate : 31.250 FPS (1536 SPF)

  134. Compression mode : Lossy

  135. Delay relative to video : -83 ms

  136. Stream size : 465 MiB (4%)

  137. Language : Spanish

  138. Service kind : Complete Main

  139. Default : Yes

  140. Forced : No


  141. Audio #6

  142. ID : 7

  143. Format : E-AC-3

  144. Format/Info : Enhanced AC-3

  145. Commercial name : Dolby Digital Plus

  146. Codec ID : A_EAC3

  147. Duration : 1 h 41 min

  148. Bit rate mode : Constant

  149. Bit rate : 640 kb/s

  150. Channel(s) : 6 channels

  151. Channel layout : L R C LFE Ls Rs

  152. Sampling rate : 48.0 kHz

  153. Frame rate : 31.250 FPS (1536 SPF)

  154. Compression mode : Lossy

  155. Delay relative to video : -83 ms

  156. Stream size : 465 MiB (4%)

  157. Language : Polish

  158. Service kind : Complete Main

  159. Default : Yes

  160. Forced : No


  161. Audio #7

  162. ID : 8

  163. Format : E-AC-3

  164. Format/Info : Enhanced AC-3

  165. Commercial name : Dolby Digital Plus

  166. Codec ID : A_EAC3

  167. Duration : 1 h 41 min

  168. Bit rate mode : Constant

  169. Bit rate : 640 kb/s

  170. Channel(s) : 6 channels

  171. Channel layout : L R C LFE Ls Rs

  172. Sampling rate : 48.0 kHz

  173. Frame rate : 31.250 FPS (1536 SPF)

  174. Compression mode : Lossy

  175. Delay relative to video : -83 ms

  176. Stream size : 465 MiB (4%)

  177. Language : Czech

  178. Service kind : Complete Main

  179. Default : Yes

  180. Forced : No


  181. Audio #8

  182. ID : 9

  183. Format : E-AC-3

  184. Format/Info : Enhanced AC-3

  185. Commercial name : Dolby Digital Plus

  186. Codec ID : A_EAC3

  187. Duration : 1 h 41 min

  188. Bit rate mode : Constant

  189. Bit rate : 640 kb/s

  190. Channel(s) : 6 channels

  191. Channel layout : L R C LFE Ls Rs

  192. Sampling rate : 48.0 kHz

  193. Frame rate : 31.250 FPS (1536 SPF)

  194. Compression mode : Lossy

  195. Delay relative to video : -83 ms

  196. Stream size : 465 MiB (4%)

  197. Language : Russian

  198. Service kind : Complete Main

  199. Default : Yes

  200. Forced : No


  201. Audio #9

  202. ID : 10

  203. Format : E-AC-3

  204. Format/Info : Enhanced AC-3

  205. Commercial name : Dolby Digital Plus

  206. Codec ID : A_EAC3

  207. Duration : 1 h 41 min

  208. Bit rate mode : Constant

  209. Bit rate : 640 kb/s

  210. Channel(s) : 6 channels

  211. Channel layout : L R C LFE Ls Rs

  212. Sampling rate : 48.0 kHz

  213. Frame rate : 31.250 FPS (1536 SPF)

  214. Compression mode : Lossy

  215. Delay relative to video : -83 ms

  216. Stream size : 465 MiB (4%)

  217. Language : Hungarian

  218. Service kind : Complete Main

  219. Default : Yes

  220. Forced : No


  221. Audio #10

  222. ID : 11

  223. Format : E-AC-3

  224. Format/Info : Enhanced AC-3

  225. Commercial name : Dolby Digital Plus

  226. Codec ID : A_EAC3

  227. Duration : 1 h 41 min

  228. Bit rate mode : Constant

  229. Bit rate : 640 kb/s

  230. Channel(s) : 6 channels

  231. Channel layout : L R C LFE Ls Rs

  232. Sampling rate : 48.0 kHz

  233. Frame rate : 31.250 FPS (1536 SPF)

  234. Compression mode : Lossy

  235. Delay relative to video : -83 ms

  236. Stream size : 465 MiB (4%)

  237. Language : Portuguese

  238. Service kind : Complete Main

  239. Default : Yes

  240. Forced : No


  241. Audio #11

  242. ID : 12

  243. Format : E-AC-3

  244. Format/Info : Enhanced AC-3

  245. Commercial name : Dolby Digital Plus

  246. Codec ID : A_EAC3

  247. Duration : 1 h 41 min

  248. Bit rate mode : Constant

  249. Bit rate : 640 kb/s

  250. Channel(s) : 6 channels

  251. Channel layout : L R C LFE Ls Rs

  252. Sampling rate : 48.0 kHz

  253. Frame rate : 31.250 FPS (1536 SPF)

  254. Compression mode : Lossy

  255. Delay relative to video : -83 ms

  256. Stream size : 465 MiB (4%)

  257. Language : Turkish

  258. Service kind : Complete Main

  259. Default : Yes

  260. Forced : No


  261. Audio #12

  262. ID : 13

  263. Format : E-AC-3

  264. Format/Info : Enhanced AC-3

  265. Commercial name : Dolby Digital Plus

  266. Codec ID : A_EAC3

  267. Duration : 1 h 41 min

  268. Bit rate mode : Constant

  269. Bit rate : 640 kb/s

  270. Channel(s) : 6 channels

  271. Channel layout : L R C LFE Ls Rs

  272. Sampling rate : 48.0 kHz

  273. Frame rate : 31.250 FPS (1536 SPF)

  274. Compression mode : Lossy

  275. Delay relative to video : -83 ms

  276. Stream size : 465 MiB (4%)

  277. Language : Japanese

  278. Service kind : Complete Main

  279. Default : Yes

  280. Forced : No


  281. Audio #13

  282. ID : 14

  283. Format : E-AC-3

  284. Format/Info : Enhanced AC-3

  285. Commercial name : Dolby Digital Plus

  286. Codec ID : A_EAC3

  287. Duration : 1 h 41 min

  288. Bit rate mode : Constant

  289. Bit rate : 640 kb/s

  290. Channel(s) : 6 channels

  291. Channel layout : L R C LFE Ls Rs

  292. Sampling rate : 48.0 kHz

  293. Frame rate : 31.250 FPS (1536 SPF)

  294. Compression mode : Lossy

  295. Delay relative to video : -83 ms

  296. Stream size : 465 MiB (4%)

  297. Language : Thai

  298. Service kind : Complete Main

  299. Default : Yes

  300. Forced : No


  301. Audio #14

  302. ID : 15

  303. Format : E-AC-3

  304. Format/Info : Enhanced AC-3

  305. Commercial name : Dolby Digital Plus

  306. Codec ID : A_EAC3

  307. Duration : 1 h 41 min

  308. Bit rate mode : Constant

  309. Bit rate : 640 kb/s

  310. Channel(s) : 6 channels

  311. Channel layout : L R C LFE Ls Rs

  312. Sampling rate : 48.0 kHz

  313. Frame rate : 31.250 FPS (1536 SPF)

  314. Compression mode : Lossy

  315. Delay relative to video : -83 ms

  316. Stream size : 465 MiB (4%)

  317. Language : Hindi

  318. Service kind : Complete Main

  319. Default : Yes

  320. Forced : No


  321. Audio #15

  322. ID : 16

  323. Format : E-AC-3

  324. Format/Info : Enhanced AC-3

  325. Commercial name : Dolby Digital Plus

  326. Codec ID : A_EAC3

  327. Duration : 1 h 41 min

  328. Bit rate mode : Constant

  329. Bit rate : 640 kb/s

  330. Channel(s) : 6 channels

  331. Channel layout : L R C LFE Ls Rs

  332. Sampling rate : 48.0 kHz

  333. Frame rate : 31.250 FPS (1536 SPF)

  334. Compression mode : Lossy

  335. Delay relative to video : -83 ms

  336. Stream size : 466 MiB (4%)

  337. Title : European Spanish

  338. Language : Spanish

  339. Service kind : Complete Main

  340. Default : Yes

  341. Forced : No


  342. Text #1

  343. ID : 17

  344. Format : UTF-8

  345. Codec ID : S_TEXT/UTF8

  346. Codec ID/Info : UTF-8 Plain Text

  347. Duration : 1 h 40 min

  348. Bit rate : 97 b/s

  349. Count of elements : 1280

  350. Stream size : 71.7 KiB (0%)

  351. Title : ?????????????

  352. Language : Arabic

  353. Default : Yes

  354. Forced : No


  355. Text #2

  356. ID : 18

  357. Format : UTF-8

  358. Codec ID : S_TEXT/UTF8

  359. Codec ID/Info : UTF-8 Plain Text

  360. Duration : 1 h 40 min

  361. Bit rate : 55 b/s

  362. Count of elements : 1263

  363. Stream size : 40.4 KiB (0%)

  364. Title : ?e?tina

  365. Language : Czech

  366. Default : Yes

  367. Forced : No


  368. Text #3

  369. ID : 19

  370. Format : UTF-8

  371. Codec ID : S_TEXT/UTF8

  372. Codec ID/Info : UTF-8 Plain Text

  373. Duration : 1 h 40 min

  374. Bit rate : 52 b/s

  375. Count of elements : 1242

  376. Stream size : 38.2 KiB (0%)

  377. Title : Dansk

  378. Language : Danish

  379. Default : Yes

  380. Forced : No


  381. Text #4

  382. ID : 20

  383. Format : UTF-8

  384. Codec ID : S_TEXT/UTF8

  385. Codec ID/Info : UTF-8 Plain Text

  386. Duration : 1 h 40 min

  387. Bit rate : 56 b/s

  388. Count of elements : 1227

  389. Stream size : 41.4 KiB (0%)

  390. Title : Deutsch

  391. Language : German

  392. Default : Yes

  393. Forced : No


  394. Text #5

  395. ID : 21

  396. Format : UTF-8

  397. Codec ID : S_TEXT/UTF8

  398. Codec ID/Info : UTF-8 Plain Text

  399. Duration : 1 h 40 min

  400. Bit rate : 90 b/s

  401. Count of elements : 1264

  402. Stream size : 66.0 KiB (0%)

  403. Title : Ελληνικ?

  404. Language : Greek

  405. Default : Yes

  406. Forced : No


  407. Text #6

  408. ID : 22

  409. Format : UTF-8

  410. Codec ID : S_TEXT/UTF8

  411. Codec ID/Info : UTF-8 Plain Text

  412. Duration : 1 h 39 min

  413. Bit rate : 84 b/s

  414. Count of elements : 1739

  415. Stream size : 61.4 KiB (0%)

  416. Title : English

  417. Language : English

  418. Default : Yes

  419. Forced : No


  420. Text #7

  421. ID : 23

  422. Format : UTF-8

  423. Codec ID : S_TEXT/UTF8

  424. Codec ID/Info : UTF-8 Plain Text

  425. Duration : 1 h 40 min

  426. Bit rate : 53 b/s

  427. Count of elements : 1316

  428. Stream size : 39.0 KiB (0%)

  429. Title : Espa?ol

  430. Language : Spanish

  431. Default : Yes

  432. Forced : No


  433. Text #8

  434. ID : 24

  435. Format : UTF-8

  436. Codec ID : S_TEXT/UTF8

  437. Codec ID/Info : UTF-8 Plain Text

  438. Duration : 1 h 40 min

  439. Bit rate : 55 b/s

  440. Count of elements : 1320

  441. Stream size : 40.8 KiB (0%)

  442. Title : European?Espa?ol

  443. Language : Spanish

  444. Default : Yes

  445. Forced : No


  446. Text #9

  447. ID : 25

  448. Format : UTF-8

  449. Codec ID : S_TEXT/UTF8

  450. Codec ID/Info : UTF-8 Plain Text

  451. Duration : 1 h 40 min

  452. Bit rate : 48 b/s

  453. Count of elements : 1161

  454. Stream size : 35.2 KiB (0%)

  455. Title : Somoli

  456. Language : Finnish

  457. Default : Yes

  458. Forced : No


  459. Text #10

  460. ID : 26

  461. Format : UTF-8

  462. Codec ID : S_TEXT/UTF8

  463. Codec ID/Info : UTF-8 Plain Text

  464. Duration : 1 h 40 min

  465. Bit rate : 51 b/s

  466. Count of elements : 1287

  467. Stream size : 37.8 KiB (0%)

  468. Title : Fran?ais

  469. Language : French

  470. Default : Yes

  471. Forced : No


  472. Text #11

  473. ID : 27

  474. Format : UTF-8

  475. Codec ID : S_TEXT/UTF8

  476. Codec ID/Info : UTF-8 Plain Text

  477. Duration : 1 h 40 min

  478. Bit rate : 88 b/s

  479. Count of elements : 1263

  480. Stream size : 65.1 KiB (0%)

  481. Title : ????????

  482. Language : Hebrew

  483. Default : Yes

  484. Forced : No


  485. Text #12

  486. ID : 28

  487. Format : UTF-8

  488. Codec ID : S_TEXT/UTF8

  489. Codec ID/Info : UTF-8 Plain Text

  490. Duration : 1 h 40 min

  491. Bit rate : 46 b/s

  492. Count of elements : 1240

  493. Stream size : 34.4 KiB (0%)

  494. Title : Hrvatski

  495. Language : Croatian

  496. Default : Yes

  497. Forced : No


  498. Text #13

  499. ID : 29

  500. Format : UTF-8

  501. Codec ID : S_TEXT/UTF8

  502. Codec ID/Info : UTF-8 Plain Text

  503. Duration : 1 h 40 min

  504. Bit rate : 52 b/s

  505. Count of elements : 1255

  506. Stream size : 38.6 KiB (0%)

  507. Title : Hungarian

  508. Language : Hungarian

  509. Default : Yes

  510. Forced : No


  511. Text #14

  512. ID : 30

  513. Format : UTF-8

  514. Codec ID : S_TEXT/UTF8

  515. Codec ID/Info : UTF-8 Plain Text

  516. Duration : 1 h 40 min

  517. Bit rate : 53 b/s

  518. Count of elements : 1265

  519. Stream size : 39.5 KiB (0%)

  520. Title : Indonesian

  521. Language : Indonesian

  522. Default : Yes

  523. Forced : No


  524. Text #15

  525. ID : 31

  526. Format : UTF-8

  527. Codec ID : S_TEXT/UTF8

  528. Codec ID/Info : UTF-8 Plain Text

  529. Duration : 1 h 40 min

  530. Bit rate : 51 b/s

  531. Count of elements : 1226

  532. Stream size : 37.4 KiB (0%)

  533. Title : Italian

  534. Language : Italian

  535. Default : Yes

  536. Forced : No


  537. Text #16

  538. ID : 32

  539. Format : UTF-8

  540. Codec ID : S_TEXT/UTF8

  541. Codec ID/Info : UTF-8 Plain Text

  542. Duration : 1 h 40 min

  543. Bit rate : 97 b/s

  544. Count of elements : 1331

  545. Stream size : 71.6 KiB (0%)

  546. Title : 日本

  547. Language : Japanese

  548. Default : Yes

  549. Forced : No


  550. Text #17

  551. ID : 33

  552. Format : UTF-8

  553. Codec ID : S_TEXT/UTF8

  554. Codec ID/Info : UTF-8 Plain Text

  555. Duration : 1 h 40 min

  556. Bit rate : 65 b/s

  557. Count of elements : 1285

  558. Stream size : 47.8 KiB (0%)

  559. Title : ???

  560. Language : Korean

  561. Default : Yes

  562. Forced : No


  563. Text #18

  564. ID : 34

  565. Format : UTF-8

  566. Codec ID : S_TEXT/UTF8

  567. Codec ID/Info : UTF-8 Plain Text

  568. Duration : 1 h 40 min

  569. Bit rate : 53 b/s

  570. Count of elements : 1314

  571. Stream size : 39.6 KiB (0%)

  572. Title : Malay

  573. Language : Malay

  574. Default : Yes

  575. Forced : No


  576. Text #19

  577. ID : 35

  578. Format : UTF-8

  579. Codec ID : S_TEXT/UTF8

  580. Codec ID/Info : UTF-8 Plain Text

  581. Duration : 1 h 40 min

  582. Bit rate : 52 b/s

  583. Count of elements : 1135

  584. Stream size : 38.5 KiB (0%)

  585. Title : Norsk

  586. Language : Norwegian Bokmal

  587. Default : Yes

  588. Forced : No


  589. Text #20

  590. ID : 36

  591. Format : UTF-8

  592. Codec ID : S_TEXT/UTF8

  593. Codec ID/Info : UTF-8 Plain Text

  594. Duration : 1 h 40 min

  595. Bit rate : 49 b/s

  596. Count of elements : 1116

  597. Stream size : 36.6 KiB (0%)

  598. Title : Nederlands

  599. Language : Dutch

  600. Default : Yes

  601. Forced : No


  602. Text #21

  603. ID : 37

  604. Format : UTF-8

  605. Codec ID : S_TEXT/UTF8

  606. Codec ID/Info : UTF-8 Plain Text

  607. Duration : 1 h 40 min

  608. Bit rate : 52 b/s

  609. Count of elements : 1234

  610. Stream size : 38.5 KiB (0%)

  611. Title : Polski

  612. Language : Polish

  613. Default : Yes

  614. Forced : No


  615. Text #22

  616. ID : 38

  617. Format : UTF-8

  618. Codec ID : S_TEXT/UTF8

  619. Codec ID/Info : UTF-8 Plain Text

  620. Duration : 1 h 40 min

  621. Bit rate : 53 b/s

  622. Count of elements : 1227

  623. Stream size : 39.4 KiB (0%)

  624. Title : Português

  625. Language : Portuguese

  626. Default : Yes

  627. Forced : No


  628. Text #23

  629. ID : 39

  630. Format : UTF-8

  631. Codec ID : S_TEXT/UTF8

  632. Codec ID/Info : UTF-8 Plain Text

  633. Duration : 1 h 40 min

  634. Bit rate : 53 b/s

  635. Count of elements : 1260

  636. Stream size : 39.4 KiB (0%)

  637. Title : Português?brasileiro

  638. Language : Portuguese

  639. Default : Yes

  640. Forced : No


  641. Text #24

  642. ID : 40

  643. Format : UTF-8

  644. Codec ID : S_TEXT/UTF8

  645. Codec ID/Info : UTF-8 Plain Text

  646. Duration : 1 h 40 min

  647. Bit rate : 51 b/s

  648. Count of elements : 1228

  649. Stream size : 37.9 KiB (0%)

  650. Title : Roman?

  651. Language : Romanian

  652. Default : Yes

  653. Forced : No


  654. Text #25

  655. ID : 41

  656. Format : UTF-8

  657. Codec ID : S_TEXT/UTF8

  658. Codec ID/Info : UTF-8 Plain Text

  659. Duration : 1 h 40 min

  660. Bit rate : 83 b/s

  661. Count of elements : 1242

  662. Stream size : 61.2 KiB (0%)

  663. Title : русский?язык

  664. Language : Russian

  665. Default : Yes

  666. Forced : No


  667. Text #26

  668. ID : 42

  669. Format : UTF-8

  670. Codec ID : S_TEXT/UTF8

  671. Codec ID/Info : UTF-8 Plain Text

  672. Duration : 1 h 40 min

  673. Bit rate : 54 b/s

  674. Count of elements : 1036

  675. Stream size : 40.2 KiB (0%)

  676. Title : Svenska

  677. Language : Swedish

  678. Default : Yes

  679. Forced : No


  680. Text #27

  681. ID : 43

  682. Format : UTF-8

  683. Codec ID : S_TEXT/UTF8

  684. Codec ID/Info : UTF-8 Plain Text

  685. Duration : 1 h 40 min

  686. Bit rate : 145 b/s

  687. Count of elements : 1285

  688. Stream size : 106 KiB (0%)

  689. Title : ???????

  690. Language : Thai

  691. Default : Yes

  692. Forced : No


  693. Text #28

  694. ID : 44

  695. Format : UTF-8

  696. Codec ID : S_TEXT/UTF8

  697. Codec ID/Info : UTF-8 Plain Text

  698. Duration : 1 h 40 min

  699. Bit rate : 54 b/s

  700. Count of elements : 1237

  701. Stream size : 40.1 KiB (0%)

  702. Title : Türk?e

  703. Language : Turkish

  704. Default : Yes

  705. Forced : No


  706. Text #29

  707. ID : 45

  708. Format : UTF-8

  709. Codec ID : S_TEXT/UTF8

  710. Codec ID/Info : UTF-8 Plain Text

  711. Duration : 1 h 40 min

  712. Bit rate : 87 b/s

  713. Count of elements : 1254

  714. Stream size : 64.5 KiB (0%)

  715. Title : укра?нська?мова

  716. Language : Ukrainian

  717. Default : Yes

  718. Forced : No


  719. Text #30

  720. ID : 46

  721. Format : UTF-8

  722. Codec ID : S_TEXT/UTF8

  723. Codec ID/Info : UTF-8 Plain Text

  724. Duration : 1 h 40 min

  725. Bit rate : 68 b/s

  726. Count of elements : 1270

  727. Stream size : 49.9 KiB (0%)

  728. Title : Ti?ng?Vi?t

  729. Language : Vietnamese

  730. Default : Yes

  731. Forced : No


  732. Text #31

  733. ID : 47

  734. Format : UTF-8

  735. Codec ID : S_TEXT/UTF8

  736. Codec ID/Info : UTF-8 Plain Text

  737. Duration : 1 h 40 min

  738. Bit rate : 51 b/s

  739. Count of elements : 1294

  740. Stream size : 37.6 KiB (0%)

  741. Title : Simplified?Chinese

  742. Language : Chinese

  743. Default : Yes

  744. Forced : No


  745. Text #32

  746. ID : 48

  747. Format : UTF-8

  748. Codec ID : S_TEXT/UTF8

  749. Codec ID/Info : UTF-8 Plain Text

  750. Duration : 1 h 40 min

  751. Bit rate : 49 b/s

  752. Count of elements : 1489

  753. Stream size : 36.2 KiB (0%)

  754. Title : Traditional?Chinese

  755. Language : Chinese

  756. Default : Yes

  757. Forced : No


文件下载


除非特别注明,本文『爱情度假村[简繁字幕]Resort.to.Love.2021.Netflix.WEB-DL.1080p.x264.DDP5.1-迅雷下载 10.61GB』来源于互联网机器人自动抓取,非本站原创。 浮游电影网不对本文拥有版权,如有侵犯,请联系邮箱:fuyouu#yandex.com[#换成@]投诉。我们会在15个工作日内删除。 但烦请转载时请标明出处:“本文转载于『浮游电影网』,原文地址:https://www.fuyouu.com/13314.html

评论吧骚年!

发表你的见解   

昵称*

E-mail*(建议输入,以便收到博主回复的提示邮件)

验证码*

您可以使用eMule或eMule Mod(Windows)、aMule(Win、Linux、Mac)等软件下载eD2k链接。。
eMule收藏集(.emulecollection)文件是您选中的所有链接的列表文件。eMule可以直接下载它们。
按住SHIFT键选择可以选中多个选择框。
可用文件名和大小选择器来选择文件。
文件名选择器帮您根据文件名称或后缀来选择文件。不分大小写。
符号使用:
和:空格( )、+
不包含:-
或:|
转义:一对英文引号("");
匹配开头:^
匹配结尾:$
例如:
选中所有名称中包含有“eMule”或“0.49c”字眼,但不包含有“exe”字眼的:emule|0.49c -exe
选中所有名称的开头是“eMule”,结尾是“0.49c”的:^emule 0.49c$
选中所有名称中带有“eMule 0.49c”的(必须是“eMule 0.49c”,中间没有别的字符,不能是“eMule fake 0.49c”),需要转义:"emule 0.49c"
大小选择器帮您根据文件大小选择文件。