当前位置: 首页 >> 海外电影 >> 资产阶级的审慎魅力[简繁字幕].The.Discreet.Charm.of.the.Bourgeoisie.1972.Criterion.Collection.1080p.迅雷下载 7.64GB >> 正文

资产阶级的审慎魅力[简繁字幕].The.Discreet.Charm.of.the.Bourgeoisie.1972.Criterion.Collection.1080p.迅雷下载 7.64GB

2021年08月02日 11:02:00     电影发布:来源于网络     电影分类:海外电影     评论(0)    

资产阶级的审慎魅力[简繁字幕].The.Discreet.Charm.of.the.Bourgeoisie.1972.Criterion.Collection.1080p.迅雷下载 7.64GB 奇幻片 喜剧片 剧情片 海外电影  第1张

◎译 名 资产阶级的审慎魅力 / 中产阶级拘谨的魅力(港 / 台) / 中产阶级的审慎魅力 / 中产阶级的诱惑 / 资产阶级隐秘的魅力 / 资产阶级的魅力 / The Discreet Charm of the Bourgeoisie

◎片 名 Le Charme discret de la bourgeoisie

◎年 代 1972

◎产 地 法国

◎类 别 剧情 / 喜剧 / 奇幻

◎语 言 西班牙语 / 法语

◎上映日期 1972-09-15

◎IMDb链接 https://www.imdb.com/title/tt0068361/

◎豆瓣评分 8.2/10 (22276人评价)

◎豆瓣链接 https://movie.douban.com/subject/1303364/

◎片 长 102 分钟

◎导 演 路易斯·布努埃尔 Luis Bu?uel (id:1032095)

◎编 剧 路易斯·布努埃尔 Luis Bu?uel (id:1032095)

让-克劳德·卡里埃尔 Jean-Claude Carrière (id:1050366)

◎演 员 费尔南多·雷伊 Fernando Rey (id:1050140)

保罗·弗朗克尔 Paul Frankeur (id:1082628)

德菲因·塞里格 Delphine Seyrig (id:1000594)

布鲁·欧吉尔 Bulle Ogier (id:1025433)

让-皮埃尔·卡塞尔 Jean-Pierre Cassel (id:1041243)

米歇尔·皮科利 Michel Piccoli (id:1016618)

斯特凡·奥德朗 Stéphane Audran (id:1041321)

米莱娜·伍柯迪克 Milena Vukotic (id:1161854)

Amparo Soler Leal Amparo Soler Leal (id:1149137)

玛丽亚·加布里埃拉·玛雅 Maria Gabriella Maione (id:1345821)

朱利安·贝尔托 Julien Bertheau (id:1064631)

皮埃尔·马格隆 Pierre Maguelon (id:1116652)

穆尼 Muni (id:1137193)

阿里克斯·马赫 Alix Mahieux (id:1335912)

克洛德·皮埃普吕 Claude Piéplu (id:1127957)

弗朗索瓦·麦斯特 Fran?ois Maistre (id:1125609)

贝尔纳·米松 Bernard Musson (id:1132041)

雅克·里斯帕尔 Jacques Rispal (id:1138951)

Maxence Mailfort Maxence Mailfort (id:1122138)

罗贝尔·勒贝亚尔 Robert Le Béal (id:1113064)

克洛德·耶热 Claude Jaeger (id:1002530)

乔治·杜坎 Georges Douking (id:1084804)

塞尔·西尔伯曼 Serge Silberman (id:1048699)

埃德蒙·理查德 Edmond Richard (id:1017108)

皮埃尔·古弗罗伊 Pierre Guffroy (id:1048695)

◎标 签 法国 / 布努艾尔 / 西班牙 / 1972 / 法国电影 / 路易斯·布努埃尔 / 经典 / 喜剧

◎简 介

朋友们来到大使拉法尔(费尔南多?雷依 Fernando Rey 饰)家中做客,但是他们记错了晚餐的时间。毫无准备的拉法尔夫人(德菲因?塞里格 Delphine Seyrig 饰)对此深表遗憾,但是大家谈兴正浓,于是在外面聚餐。然而在酒店里,大家却见证了店员为店主守灵的一幕,遂悻悻离去。6个人走在乡间小径上,阴云密布的天空中,阵风吹起了麦浪,他们开始分享失约的奇遇……

塞内夏尔(让-皮埃尔?卡塞尔 Jean-Pierre Cassel 饰)去大使馆拜访拉法尔,但是却目睹了他射击驱赶女恐怖分子的一幕;拉法尔在家中又遇到了这个意欲行刺的女人,还好他巧妙地化解了危情;其他人到弗洛伦斯(布鲁?欧吉尔 Bulle Ogier 饰)家做客,但是男女主人却躲在后花园偷情。只剩下女仆伊勒斯招待各位宾朋,众人觉得无聊作鸟兽散;女眷们在席间闲谈,突然闯来一个装甲部队上尉,...

◎获奖情况 (共2项)

第45届奥斯卡金像奖 (1973)

最佳原创剧本(提名)

最佳外语片

  1. ##### MediaInfo ######

  2. General

  3. Unique ID : 251099215726059301170110151489966844546 (0xBCE7F329E31A929102F5DBEE047C2A82)

  4. Complete name : The.Discreet.Charm.of.the.Bourgeoisie.1972.Criterion.Collection.1080p.BluRay.x265.10bit.FLAC.MNHD-10018@BBQDDQ.COM.mkv

  5. Format : Matroska

  6. Format version : Version 4

  7. File size : 7.64 GiB

  8. Duration : 1 h 41 min

  9. Overall bit rate mode : Variable

  10. Overall bit rate : 10.7 Mb/s

  11. Encoded date : UTC 2021-07-28 06:20:41

  12. Writing application : mkvmerge v45.0.0 ('Heaven in Pennies') 64-bit

  13. Writing library : libebml v1.3.10 + libmatroska v1.5.2

  14. Cover : Yes

  15. Attachments : cover


  16. Video

  17. ID : 1

  18. Format : HEVC

  19. Format/Info : High Efficiency Video Coding

  20. Format profile : Main 10@L5.1@High

  21. Codec ID : V_MPEGH/ISO/HEVC

  22. Duration : 1 h 41 min

  23. Bit rate : 10.0 Mb/s

  24. Width : 1 792 pixels

  25. Height : 1 080 pixels

  26. Display aspect ratio : 5:3

  27. Frame rate mode : Constant

  28. Frame rate : 23.976 (24000/1001/53354) FPS

  29. Color space : YUV

  30. Chroma subsampling : 4:2:0

  31. Bit depth : 10 bits

  32. Bits/(Pixel*Frame) : 0.216

  33. Stream size : 7.14 GiB (93%)

  34. Writing library : x265 3.5:[Linux][GCC 9.3.0][64 bit] 10bit

  35. Encoding settings : cpuid=533541111039 / frame-threads=5 / wpp / pmode / no-pme / no-psnr / no-ssim / log-level=2 / input-csp=1 / input-res=1792x1080 / interlace=0 / total-frames=146647 / level-idc=0 / high-tier=1 / uhd-bd=0 / ref=6 / no-allow-non-conformance / no-repeat-headers / annexb / no-aud / no-hrd / info / hash=0 / no-temporal-layers / no-open-gop / min-keyint=23 / keyint=250 / gop-lookahead=0 / bframes=8 / b-adapt=2 / b-pyramid / bframe-bias=0 / rc-lookahead=80 / lookahead-slices=0 / NTMzNTQ=uuDQuD2mJt9fsCf / scenecut=40 / hist-scenecut=0 / radl=0 / no-splice / no-intra-refresh / ctu=32 / min-cu-size=8 / no-rect / no-amp / max-tu-size=32 / tu-inter-depth=4 / tu-intra-depth=4 / limit-tu=0 / rdoq-level=2 / dynamic-rd=0.00 / no-ssim-rd / signhide / no-tskip / nr-intra=0 / nr-inter=0 / no-constrained-intra / strong-intra-smoothing / max-merge=5 / limit-refs=0 / no-limit-modes / me=3 / subme=7 / merange=57 / temporal-mvp / no-frame-dup / no-hme / weightp / weightb / no-analyze-src-pics / deblock=-3:-3 / no-sao / no-sao-non-deblock / rd=4 / selective-sao=0 / no-early-skip / no-rskip / no-fast-intra / no-tskip-fast / no-cu-lossless / b-intra / no-splitrd-skip / rdpenalty=0 / psy-rd=1.00 / psy-rdoq=1.00 / no-rd-refine / no-lossless / cbqpoffs=0 / crqpoffs=0 / rc=crf / crf=23.0 / qcomp=0.60 / qpstep=4 / stats-write=0 / stats-read=0 / vbv-maxrate=160000 / vbv-bufsize=160000 / vbv-init=0.9 / min-vbv-fullness=50.0 / max-vbv-fullness=80.0 / crf-max=0.0 / crf-min=0.0 / ipratio=1.30 / pbratio=1.20 / aq-mode=2 / aq-strength=1.00 / cutree / zone-count=0 / no-strict-cbr / qg-size=32 / no-rc-grain / qpmax=69 / qpmin=0 / no-const-vbv / sar=0 / overscan=0 / videoformat=5 / range=0 / colorprim=1 / transfer=1 / colormatrix=1 / chromaloc=0 / display-window=0 / cll=0,0 / min-luma=0 / max-luma=1023 / log2-max-poc-lsb=8 / vui-timing-info / vui-hrd-info / slices=1 / no-opt-qp-pps / no-opt-ref-list-length-pps / no-multi-pass-opt-rps / scenecut-bias=0.05 / hist-threshold=0.03 / no-opt-cu-delta-qp / no-aq-motion / no-hdr10 / no-hdr10-opt / no-dhdr10-opt / no-idr-recovery-sei / analysis-reuse-level=0 / analysis-save-reuse-level=0 / analysis-load-reuse-level=0 / scale-factor=0 / refine-intra=0 / refine-inter=0 / refine-mv=1 / refine-ctu-distortion=0 / no-limit-sao / ctu-info=0 / no-lowpass-dct / refine-analysis-type=0 / copy-pic=1 / max-ausize-factor=1.0 / no-dynamic-refine / no-single-sei / no-hevc-aq / no-svt / no-field / qp-adaptation-range=1.00 / scenecut-aware-qp=0conformance-window-offsets / right=0 / bottom=0 / NTMzNTQ= / decoder-max-rate=0 / no-vbv-live-multi-pass

  36. Default : Yes

  37. Forced : No

  38. Color range : Limited

  39. Color primaries : BT.709

  40. Transfer characteristics : BT.709

  41. Matrix coefficients : BT.709


  42. Audio

  43. ID : 2

  44. Format : FLAC

  45. Format/Info : Free Lossless Audio Codec

  46. Codec ID : A_FLAC

  47. Duration : 1 h 41 min

  48. Bit rate mode : Variable

  49. Bit rate : 660 kb/s

  50. Channel(s) : 1 channel

  51. Channel layout : C

  52. Sampling rate : 48.0 kHz

  53. Frame rate : 10.417 FPS (4608 SPF)

  54. Bit depth : 24 bits

  55. Compression mode : Lossless

  56. Stream size : 481 MiB (6%)

  57. Writing library : Lavf58.29.100

  58. Language : French

  59. Default : Yes

  60. Forced : No


  61. Text #1

  62. ID : 3

  63. Format : PGS

  64. Muxing mode : zlib

  65. Codec ID : S_HDMV/PGS

  66. Codec ID/Info : Picture based subtitle format used on BDs/HD-DVDs

  67. Duration : 1 h 38 min

  68. Bit rate : 41.6 kb/s

  69. Count of elements : 2288

  70. Stream size : 29.3 MiB (0%)

  71. Language : English

  72. Default : No

  73. Forced : No


  74. Text #2

  75. ID : 4

  76. Format : PGS

  77. Muxing mode : zlib

  78. Codec ID : S_HDMV/PGS

  79. Codec ID/Info : Picture based subtitle format used on BDs/HD-DVDs

  80. Duration : 1 h 38 min

  81. Bit rate : 27.3 kb/s

  82. Count of elements : 2749

  83. Stream size : 19.2 MiB (0%)

  84. Title : Simplified Chinese

  85. Language : Chinese

  86. Default : Yes

  87. Forced : No


  88. Text #3

  89. ID : 5

  90. Format : PGS

  91. Muxing mode : zlib

  92. Codec ID : S_HDMV/PGS

  93. Codec ID/Info : Picture based subtitle format used on BDs/HD-DVDs

  94. Duration : 1 h 38 min

  95. Bit rate : 27.7 kb/s

  96. Count of elements : 2749

  97. Stream size : 19.5 MiB (0%)

  98. Title : Traditional Chinese

  99. Language : Chinese

  100. Default : No

  101. Forced : No


  102. Menu

  103. 00:00:00.000 : en:A slight misunderstanding

  104. 00:09:56.762 : en:The ambassador of Miranda

  105. 00:14:26.156 : en:The guests can wait

  106. 00:22:24.176 : en:The worker

  107. 00:29:18.965 : en:Cafe sans boissons

  108. 00:32:14.641 : en:Getting to know the lieutenant

  109. 00:38:40.651 : en:"It's your husband"

  110. 00:43:58.093 : en:"Forewarned is forearmed"

  111. 00:48:16.602 : en:A most unusual dream

  112. 01:01:17.799 : en:Stage fright

  113. 01:07:17.450 : en:The truth about Miranda

  114. 01:13:43.836 : en:The journey continues

  115. 01:14:43.061 : en:"Forgive me, Father"

  116. 01:20:50.303 : en:House arrest

  117. 01:23:44.019 : en:Bloody Sergeant's Day

  118. 01:29:03.838 : en:"Release the prisoners"

  119. 01:31:31.402 : en:Dinner is served

  120. 01:37:27.091 : en:The ambassador's nightmare

  121. 01:39:57.366 : en:Onward

  122. 01:40:35.738 : en:End credits

  123. 01:41:56.151 : en:Color bars



文件下载


除非特别注明,本文『资产阶级的审慎魅力[简繁字幕].The.Discreet.Charm.of.the.Bourgeoisie.1972.Criterion.Collection.1080p.迅雷下载 7.64GB』来源于互联网机器人自动抓取,非本站原创。 浮游电影网不对本文拥有版权,如有侵犯,请联系邮箱:fuyouu#yandex.com[#换成@]投诉。我们会在15个工作日内删除。 但烦请转载时请标明出处:“本文转载于『浮游电影网』,原文地址:https://www.fuyouu.com/13313.html

评论吧骚年!

发表你的见解   

昵称*

E-mail*(建议输入,以便收到博主回复的提示邮件)

验证码*

您可以使用eMule或eMule Mod(Windows)、aMule(Win、Linux、Mac)等软件下载eD2k链接。。
eMule收藏集(.emulecollection)文件是您选中的所有链接的列表文件。eMule可以直接下载它们。
按住SHIFT键选择可以选中多个选择框。
可用文件名和大小选择器来选择文件。
文件名选择器帮您根据文件名称或后缀来选择文件。不分大小写。
符号使用:
和:空格( )、+
不包含:-
或:|
转义:一对英文引号("");
匹配开头:^
匹配结尾:$
例如:
选中所有名称中包含有“eMule”或“0.49c”字眼,但不包含有“exe”字眼的:emule|0.49c -exe
选中所有名称的开头是“eMule”,结尾是“0.49c”的:^emule 0.49c$
选中所有名称中带有“eMule 0.49c”的(必须是“eMule 0.49c”,中间没有别的字符,不能是“eMule fake 0.49c”),需要转义:"emule 0.49c"
大小选择器帮您根据文件大小选择文件。