当前位置: 首页 >> 欧美电影 >> 理查三世[简繁字幕]Richard.III.1955.Criterion.Collection.1080p.BluRay.x265.10bit.FLAC.MNHD-迅雷下载 11.05GB >> 正文

理查三世[简繁字幕]Richard.III.1955.Criterion.Collection.1080p.BluRay.x265.10bit.FLAC.MNHD-迅雷下载 11.05GB

2021年08月02日 11:00:28     电影发布:来源于网络     电影分类:欧美电影     评论(0)    

理查三世[简繁字幕]Richard.III.1955.Criterion.Collection.1080p.BluRay.x265.10bit.FLAC.MNHD 迅雷下载 11.05GB 战争片 历史 剧情片 欧美电影  第1张

◎译 名 理查三世 / 李察王三世

◎片 名 Richard III

◎年 代 1955

◎产 地 英国

◎类 别 剧情 / 历史 / 战争

◎语 言 英语 / 拉丁语

◎上映日期 1955-12-13

◎IMDb链接 https://www.imdb.com/title/tt0049674/

◎豆瓣评分 7.7/10 (425人评价)

◎豆瓣链接 https://movie.douban.com/subject/1298208/

◎片 长 161 分钟

◎导 演 劳伦斯·奥利弗 Laurence Olivier (id:1053557)

◎编 剧 威廉·莎士比亚 William Shakespeare (id:1044735)

科利·西伯 Colley Cibber (id:1043465)

◎演 员 劳伦斯·奥利弗 Laurence Olivier (id:1053557)

塞德里克·哈德威克 Cedric Hardwicke (id:1007146)

尼古拉斯·汉嫩 Nicholas Hannen (id:1099231)

拉尔夫·理查德森 Ralph Richardson (id:1036710)

约翰·吉尔古德 John Gielgud (id:1000249)

劳伦斯·奥利弗 Laurence Olivier (id:1053557)

格里·奥哈拉 Gerry O'Hara (id:1279333)

◎标 签 英国 / 莎士比亚 / 劳伦斯·奥利弗 / LaurenceOlivier / 历史 / 名著改编 / 英国电影 / CC

◎简 介

劳伦斯奥利维尔的第三部莎剧制作是由他自导自演的《理查三世》。亚历山大·柯达在影片开拍之初就说服了奥利维尔重新饰演这个为他在40年代的老维克剧院获得赞誉与喝彩的角色。这个角色被认为体现了奥利维尔最精湛的演技(只有1955年的舞台制作《麦克白》和电影《艺人》才能与之匹敌)。在西班牙拍摄期间,一名弓箭手的箭误中了奥利维尔的脚踝,导致他只能跛行。幸运的是,在电影的这一部分理查三世正好是一个跛子。

这部电影获得了不错的声誉,但是在商业上却是一部失败之作。柯达将版权卖给了美国电视网NBC,因而《理查三世》成为第一部同时在影院和电视上放映的电影。该片在NBC上获得了极高的收视率,因此有人推断,通过电视观看这部电影的人数将多于历史上观看舞台版《理查三世》的总人数。

◎获奖情况 (共2项)

第29届奥斯卡金像奖 (1957)

最佳男主角(提名)

└──劳伦斯·奥利弗 (id:1053557)

第6届柏林国际电影节 (1956)

银熊奖 国际电影大奖

└──劳伦斯·奥利弗 (id:1053557)

  1. ##### MediaInfo ######

  2. General

  3. Unique ID : 227636311787303480042429653067604439528 (0xAB4128AFA4ADAFC9F33243C5B0A031E8)

  4. Complete name : Richard.III.19[email protected]BBQDDQ.COM.mkv

  5. Format : Matroska

  6. Format version : Version 4

  7. File size : 11.0 GiB

  8. Duration : 2 h 38 min

  9. Overall bit rate mode : Variable

  10. Overall bit rate : 9 955 kb/s

  11. Encoded date : UTC 2021-07-31 12:17:14

  12. Writing application : mkvmerge v45.0.0 ('Heaven in Pennies') 64-bit

  13. Writing library : libebml v1.3.10 + libmatroska v1.5.2

  14. Cover : Yes

  15. Attachments : cover


  16. Video

  17. ID : 1

  18. Format : HEVC

  19. Format/Info : High Efficiency Video Coding

  20. Format profile : Main [email protected]@High

  21. Codec ID : V_MPEGH/ISO/HEVC

  22. Duration : 2 h 38 min

  23. Bit rate : 9 209 kb/s

  24. Width : 1 792 pixels

  25. Height : 1 080 pixels

  26. Display aspect ratio : 5:3

  27. Frame rate mode : Constant

  28. Frame rate : 23.976 (24000/1001/53354) FPS

  29. Color space : YUV

  30. Chroma subsampling : 4:2:0

  31. Bit depth : 10 bits

  32. Bits/(Pixel*Frame) : 0.198

  33. Stream size : 10.2 GiB (93%)

  34. Writing library : x265 3.5:[Linux][GCC 9.3.0][64 bit] 10bit

  35. Encoding settings : cpuid=533541111039 / frame-threads=5 / wpp / pmode / no-pme / no-psnr / no-ssim / log-level=2 / input-csp=1 / input-res=1792x1080 / interlace=0 / total-frames=228481 / level-idc=0 / high-tier=1 / uhd-bd=0 / ref=6 / no-allow-non-conformance / no-repeat-headers / annexb / no-aud / no-hrd / info / hash=0 / no-temporal-layers / no-open-gop / min-keyint=23 / keyint=250 / gop-lookahead=0 / bframes=8 / b-adapt=2 / b-pyramid / bframe-bias=0 / rc-lookahead=80 / lookahead-slices=0 / NTMzNTQ=uuDQuD2mJt9fsCf / scenecut=40 / hist-scenecut=0 / radl=0 / no-splice / no-intra-refresh / ctu=32 / min-cu-size=8 / no-rect / no-amp / max-tu-size=32 / tu-inter-depth=4 / tu-intra-depth=4 / limit-tu=0 / rdoq-level=2 / dynamic-rd=0.00 / no-ssim-rd / signhide / no-tskip / nr-intra=0 / nr-inter=0 / no-constrained-intra / strong-intra-smoothing / max-merge=5 / limit-refs=0 / no-limit-modes / me=3 / subme=7 / merange=57 / temporal-mvp / no-frame-dup / no-hme / weightp / weightb / no-analyze-src-pics / deblock=-3:-3 / no-sao / no-sao-non-deblock / rd=4 / selective-sao=0 / no-early-skip / no-rskip / no-fast-intra / no-tskip-fast / no-cu-lossless / b-intra / no-splitrd-skip / rdpenalty=0 / psy-rd=1.00 / psy-rdoq=1.00 / no-rd-refine / no-lossless / cbqpoffs=0 / crqpoffs=0 / rc=crf / crf=20.0 / qcomp=0.60 / qpstep=4 / stats-write=0 / stats-read=0 / vbv-maxrate=160000 / vbv-bufsize=160000 / vbv-init=0.9 / min-vbv-fullness=50.0 / max-vbv-fullness=80.0 / crf-max=0.0 / crf-min=0.0 / ipratio=1.30 / pbratio=1.20 / aq-mode=2 / aq-strength=1.00 / cutree / zone-count=0 / no-strict-cbr / qg-size=32 / no-rc-grain / qpmax=69 / qpmin=0 / no-const-vbv / sar=0 / overscan=0 / videoformat=5 / range=0 / colorprim=1 / transfer=1 / colormatrix=1 / chromaloc=0 / display-window=0 / cll=0,0 / min-luma=0 / max-luma=1023 / log2-max-poc-lsb=8 / vui-timing-info / vui-hrd-info / slices=1 / no-opt-qp-pps / no-opt-ref-list-length-pps / no-multi-pass-opt-rps / scenecut-bias=0.05 / hist-threshold=0.03 / no-opt-cu-delta-qp / no-aq-motion / no-hdr10 / no-hdr10-opt / no-dhdr10-opt / no-idr-recovery-sei / analysis-reuse-level=0 / analysis-save-reuse-level=0 / analysis-load-reuse-level=0 / scale-factor=0 / refine-intra=0 / refine-inter=0 / refine-mv=1 / refine-ctu-distortion=0 / no-limit-sao / ctu-info=0 / no-lowpass-dct / refine-analysis-type=0 / copy-pic=1 / max-ausize-factor=1.0 / no-dynamic-refine / no-single-sei / no-hevc-aq / no-svt / no-field / qp-adaptation-range=1.00 / scenecut-aware-qp=0conformance-window-offsets / right=0 / bottom=0 / NTMzNTQ= / decoder-max-rate=0 / no-vbv-live-multi-pass

  36. Default : Yes

  37. Forced : No

  38. Color range : Limited

  39. Color primaries : BT.709

  40. Transfer characteristics : BT.709

  41. Matrix coefficients : BT.709


  42. Audio #1

  43. ID : 2

  44. Format : FLAC

  45. Format/Info : Free Lossless Audio Codec

  46. Codec ID : A_FLAC

  47. Duration : 2 h 38 min

  48. Bit rate mode : Variable

  49. Bit rate : 514 kb/s

  50. Channel(s) : 1 channel

  51. Channel layout : C

  52. Sampling rate : 48.0 kHz

  53. Frame rate : 10.417 FPS (4608 SPF)

  54. Bit depth : 24 bits

  55. Compression mode : Lossless

  56. Stream size : 584 MiB (5%)

  57. Writing library : Lavf58.29.100

  58. Language : English

  59. Default : Yes

  60. Forced : No


  61. Audio #2

  62. ID : 3

  63. Format : AC-3

  64. Format/Info : Audio Coding 3

  65. Commercial name : Dolby Digital

  66. Codec ID : A_AC3

  67. Duration : 2 h 38 min

  68. Bit rate mode : Constant

  69. Bit rate : 192 kb/s

  70. Channel(s) : 1 channel

  71. Channel layout : C

  72. Sampling rate : 48.0 kHz

  73. Frame rate : 31.250 FPS (1536 SPF)

  74. Compression mode : Lossy

  75. Stream size : 218 MiB (2%)

  76. Language : English

  77. Service kind : Complete Main

  78. Default : No

  79. Forced : No


  80. Text #1

  81. ID : 4

  82. Format : PGS

  83. Muxing mode : zlib

  84. Codec ID : S_HDMV/PGS

  85. Codec ID/Info : Picture based subtitle format used on BDs/HD-DVDs

  86. Duration : 2 h 33 min

  87. Bit rate : 57.1 kb/s

  88. Count of elements : 4237

  89. Stream size : 62.7 MiB (1%)

  90. Language : English

  91. Default : No

  92. Forced : No


  93. Text #2

  94. ID : 5

  95. Format : PGS

  96. Muxing mode : zlib

  97. Codec ID : S_HDMV/PGS

  98. Codec ID/Info : Picture based subtitle format used on BDs/HD-DVDs

  99. Duration : 2 h 30 min

  100. Bit rate : 29.4 kb/s

  101. Count of elements : 3745

  102. Stream size : 31.6 MiB (0%)

  103. Title : Simplified Chinese

  104. Language : Chinese

  105. Default : Yes

  106. Forced : No


  107. Text #3

  108. ID : 6

  109. Format : PGS

  110. Muxing mode : zlib

  111. Codec ID : S_HDMV/PGS

  112. Codec ID/Info : Picture based subtitle format used on BDs/HD-DVDs

  113. Duration : 2 h 30 min

  114. Bit rate : 30.0 kb/s

  115. Count of elements : 3745

  116. Stream size : 32.2 MiB (0%)

  117. Title : Traditional Chinese

  118. Language : Chinese

  119. Default : No

  120. Forced : No


  121. Menu

  122. 00:00:00.000 : en:Opening credits and preamble

  123. 00:03:08.646 : en:Coronation of Edward IV

  124. 00:08:38.267 : en:"Now is the winter . . ."

  125. 00:13:49.411 : en:Gentle Lady Anne

  126. 00:21:04.471 : en:"Plots have I laid"

  127. 00:26:20.370 : en:"Why dost thou spit at me?"

  128. 00:33:41.269 : en:Death warrant for Clarence

  129. 00:36:16.090 : en:Clarence's dream

  130. 00:45:10.290 : en:Deciding on an heir

  131. 00:49:41.561 : en:Dream come true

  132. 00:53:32.751 : en:King Edward's bedside

  133. 00:56:30.595 : en:Richard's good spirits

  134. 01:04:16.143 : en:"To sanctuary"

  135. 01:08:59.009 : en:Prince Edward and the Duke of York

  136. 01:16:10.023 : en:"Go we unto the Tower"

  137. 01:19:11.580 : en:"Plots afoot"

  138. 01:27:55.979 : en:Council of the Crown

  139. 01:36:05.050 : en:The Lord Mayor takes a ride

  140. 01:38:05.880 : en:Buckingham's concoction

  141. 01:40:28.230 : en:"Two props of virtue"

  142. 01:47:20.517 : en:Richard's royal queen

  143. 01:51:15.752 : en:Coronation of Richard III

  144. 01:54:21.563 : en:Securing the crown

  145. 02:02:24.587 : en:"Thus lay the gentle babes"

  146. 02:04:56.071 : en:Stanley consorts with Buckingham

  147. 02:05:28.437 : en:News of Richmond

  148. 02:10:09.134 : en:Bosworth Field

  149. 02:15:27.494 : en:Eve of battle

  150. 02:19:06.212 : en:Ghosts of victims past

  151. 02:24:21.361 : en:Battle of Bosworth Field

  152. 02:31:43.844 : en:"My kingdom for a horse"

  153. 02:34:38.978 : en:Stanley crowns Richmond

  154. 02:38:49.311 : en:Color bars


文件下载


除非特别注明,本文『理查三世[简繁字幕]Richard.III.1955.Criterion.Collection.1080p.BluRay.x265.10bit.FLAC.MNHD-迅雷下载 11.05GB』来源于互联网机器人自动抓取,非本站原创。 浮游电影网不对本文拥有版权,如有侵犯,请联系邮箱:fuyouu#yandex.com[#换成@]投诉。我们会在15个工作日内删除。 但烦请转载时请标明出处:“本文转载于『浮游电影网』,原文地址:https://www.fuyouu.com/13312.html

评论吧骚年!

发表你的见解   

昵称*

E-mail*(建议输入,以便收到博主回复的提示邮件)

验证码*

您可以使用eMule或eMule Mod(Windows)、aMule(Win、Linux、Mac)等软件下载eD2k链接。。
eMule收藏集(.emulecollection)文件是您选中的所有链接的列表文件。eMule可以直接下载它们。
按住SHIFT键选择可以选中多个选择框。
可用文件名和大小选择器来选择文件。
文件名选择器帮您根据文件名称或后缀来选择文件。不分大小写。
符号使用:
和:空格( )、+
不包含:-
或:|
转义:一对英文引号("");
匹配开头:^
匹配结尾:$
例如:
选中所有名称中包含有“eMule”或“0.49c”字眼,但不包含有“exe”字眼的:emule|0.49c -exe
选中所有名称的开头是“eMule”,结尾是“0.49c”的:^emule 0.49c$
选中所有名称中带有“eMule 0.49c”的(必须是“eMule 0.49c”,中间没有别的字符,不能是“eMule fake 0.49c”),需要转义:"emule 0.49c"
大小选择器帮您根据文件大小选择文件。