当前位置: 首页 >> 海外电影 >> 迷雾追凶[国语音轨]The.Girl.in.the.Fog.2017.2160p.WEB-DL.H265.DDP5.1.2Audio-迅雷下载 4.84GB >> 正文

迷雾追凶[国语音轨]The.Girl.in.the.Fog.2017.2160p.WEB-DL.H265.DDP5.1.2Audio-迅雷下载 4.84GB

2021年08月02日 10:58:32     电影发布:来源于网络     电影分类:海外电影     评论(0)    

迷雾追凶[国语音轨]The.Girl.in.the.Fog.2017.2160p.WEB DL.H265.DDP5.1.2Audio 迅雷下载 4.84GB 悬疑片 犯罪片 惊悚片 海外电影  第1张

◎译 名 迷雾追凶 / 雾中少女 / 雾中的女孩 / The Girl in the Fog

◎片 名 La ragazza nella nebbia

◎年 代 2017

◎产 地 意大利 / 德国 / 法国

◎类 别 悬疑 / 惊悚 / 犯罪

◎语 言 意大利语

◎上映日期 2021-04-09(中国大陆) / 2017-10-26(意大利)

◎IMDb链接 https://www.imdb.com/title/tt6892400/

◎豆瓣评分 6.8/10 (3726人评价)

◎豆瓣链接 https://movie.douban.com/subject/27163074/

◎片 长 129分钟

◎导 演 多纳托·卡瑞西 Donato Carrisi (id:1399722)

◎编 剧 多纳托·卡瑞西 Donato Carrisi (id:1399722)

◎演 员 托尼·塞尔维洛 Toni Servillo (id:1023140)

阿莱西奥·博尼 Alessio Boni (id:1009615)

洛伦佐·里凯尔米 Lorenzo Richelmy (id:1339633)

让·雷诺 Jean Reno (id:1025182)

加拉泰亚·兰齐 Galatea Ranzi (id:1015053)

米雪拉·塞尚 Michela Cescon (id:1307429)

卢克雷西亚·圭多内 Lucrezia Guidone (id:1399724)

丹妮拉·皮耶萨 Daniela Piazza (id:1399725)

雅各波·奥尔莫·安蒂诺里 Jacopo Olmo Antinori (id:1329945)

玛丽娜·奥奇奥诺 Marina Occhionero (id:1399726)

格列塔·斯卡奇 Greta Scacchi (id:1004699)

安东尼奥·杰拉尔迪 Antonio Gerardi (id:1330313)

马可·波里罗 Marco Brinzi (id:1454231)

◎标 签 悬疑 / 犯罪 / 意大利 / 惊悚 / 烧脑 / 小说改编 / 剧情 / 连环杀人

◎简 介

阿尔卑斯山脚下的小镇上,大雾引发了一场交通事故,失事司机就是前来调查少女失踪案的警探沃格尔(托尼·塞尔维洛 饰),中学老师马提尼(阿莱西奥·博尼 饰)是他锁定的嫌犯。在心理医生弗洛里斯(让·雷诺 饰演)的疏导下,沃格尔缓缓道出幕后真相,一场酝酿已久的更大阴谋也逐渐显露真容。

改编自畅销全球的惊悚小说《雾中的女孩》。

  1. ##### MediaInfo ######

  2. General

  3. Unique ID : 101065881238706918175858414236582516653 (0x4C0894A8F98D22CF4C38BD84EABF97AD)

  4. Complete name : 迷雾追凶.The.Girl.in.the.Fog.2017.2160p.WEB-DL.H265.DDP5.1.2Audio-10003@BBQDDQ.COM.mkv

  5. Format : Matroska

  6. Format version : Version 4

  7. File size : 4.83 GiB

  8. Duration : 2 h 8 min

  9. Overall bit rate : 5 376 kb/s

  10. Encoded date : UTC 2021-07-31 09:22:18

  11. Writing application : mkvmerge v51.0.0 ('I Wish') 64-bit

  12. Writing library : libebml v1.4.0 + libmatroska v1.6.2


  13. Video

  14. ID : 1

  15. Format : HEVC

  16. Format/Info : High Efficiency Video Coding

  17. Format profile : Main@L5@Main

  18. Codec ID : V_MPEGH/ISO/HEVC

  19. Duration : 2 h 8 min

  20. Bit rate : 4 670 kb/s

  21. Width : 3 840 pixels

  22. Height : 1 608 pixels

  23. Display aspect ratio : 2.40:1

  24. Frame rate mode : Constant

  25. Frame rate : 24.000 FPS

  26. Color space : YUV

  27. Chroma subsampling : 4:2:0

  28. Bit depth : 8 bits

  29. Bits/(Pixel*Frame) : 0.032

  30. Stream size : 4.20 GiB (87%)

  31. Default : Yes

  32. Forced : No


  33. Audio #1

  34. ID : 2

  35. Format : E-AC-3 JOC

  36. Format/Info : Enhanced AC-3 with Joint Object Coding

  37. Commercial name : Dolby Digital Plus with Dolby Atmos

  38. Codec ID : A_EAC3

  39. Duration : 2 h 8 min

  40. Bit rate mode : Constant

  41. Bit rate : 448 kb/s

  42. Channel(s) : 6 channels

  43. Channel layout : L R C LFE Ls Rs

  44. Sampling rate : 48.0 kHz

  45. Frame rate : 31.250 FPS (1536 SPF)

  46. Compression mode : Lossy

  47. Stream size : 412 MiB (8%)

  48. Title : 意大利语

  49. Language : Italian

  50. Service kind : Complete Main

  51. Default : Yes

  52. Forced : No

  53. Complexity index : 16

  54. Number of dynamic objects : 15

  55. Bed channel count : 1 channel

  56. Bed channel configuration : LFE


  57. Audio #2

  58. ID : 3

  59. Format : E-AC-3

  60. Format/Info : Enhanced AC-3

  61. Commercial name : Dolby Digital Plus

  62. Codec ID : A_EAC3

  63. Duration : 2 h 8 min

  64. Bit rate mode : Constant

  65. Bit rate : 256 kb/s

  66. Channel(s) : 6 channels

  67. Channel layout : L R C LFE Ls Rs

  68. Sampling rate : 48.0 kHz

  69. Frame rate : 31.250 FPS (1536 SPF)

  70. Compression mode : Lossy

  71. Stream size : 236 MiB (5%)

  72. Title : 国语

  73. Language : Chinese

  74. Service kind : Complete Main

  75. Default : No

  76. Forced : No


文件下载


除非特别注明,本文『迷雾追凶[国语音轨]The.Girl.in.the.Fog.2017.2160p.WEB-DL.H265.DDP5.1.2Audio-迅雷下载 4.84GB』来源于互联网机器人自动抓取,非本站原创。 浮游电影网不对本文拥有版权,如有侵犯,请联系邮箱:fuyouu#yandex.com[#换成@]投诉。我们会在15个工作日内删除。 但烦请转载时请标明出处:“本文转载于『浮游电影网』,原文地址:https://www.fuyouu.com/13311.html

评论吧骚年!

发表你的见解   

昵称*

E-mail*(建议输入,以便收到博主回复的提示邮件)

验证码*

您可以使用eMule或eMule Mod(Windows)、aMule(Win、Linux、Mac)等软件下载eD2k链接。。
eMule收藏集(.emulecollection)文件是您选中的所有链接的列表文件。eMule可以直接下载它们。
按住SHIFT键选择可以选中多个选择框。
可用文件名和大小选择器来选择文件。
文件名选择器帮您根据文件名称或后缀来选择文件。不分大小写。
符号使用:
和:空格( )、+
不包含:-
或:|
转义:一对英文引号("");
匹配开头:^
匹配结尾:$
例如:
选中所有名称中包含有“eMule”或“0.49c”字眼,但不包含有“exe”字眼的:emule|0.49c -exe
选中所有名称的开头是“eMule”,结尾是“0.49c”的:^emule 0.49c$
选中所有名称中带有“eMule 0.49c”的(必须是“eMule 0.49c”,中间没有别的字符,不能是“eMule fake 0.49c”),需要转义:"emule 0.49c"
大小选择器帮您根据文件大小选择文件。