当前位置: 首页 >> 国产电影 >> 夏夜骑士[国语音轨]Summer.Knight.2019.WEB-DL.4K.H265.DDP.5.1-迅雷下载 12.49GB >> 正文

夏夜骑士[国语音轨]Summer.Knight.2019.WEB-DL.4K.H265.DDP.5.1-迅雷下载 12.49GB

2021年07月31日 12:48:10     电影发布:来源于网络     电影分类:国产电影     评论(0)    

夏夜骑士[国语音轨]Summer.Knight.2019.WEB DL.4K.H265.DDP.5.1 迅雷下载 12.49GB 剧情片 国产电影  第1张

◎译 名 夏夜骑士 / Summer Knight

◎年 代 2019

◎产 地 中国大陆

◎类 别 剧情

◎语 言 汉语普通话 / 四川方言

◎上映日期 2021-06-11(中国大陆) / 2019-11-03(东京国际电影节)

◎IMDb链接 https://www.imdb.com/title/tt7905318/

◎豆瓣评分 6.7/10 (1505人评价)

◎豆瓣链接 https://movie.douban.com/subject/30303548/

◎片 长 100分钟

◎导 演 尤行 Xing You (id:1423562)

◎编 剧 尤行 Xing You (id:1423562)

◎演 员 杨曾曦 Zengxi Yang (id:1401446)

康钰潇 Yuxiao Kang (id:1387922)

罗世平 Shiping Luo (id:1337088)

马炼 (id:1442044)

黄璐 Lu Huang (id:1276144)

林路迪 Ludi Lin (id:1351645)

纪凌尘 Lingchen Ji (id:1382682)

宋晓文 Rachel Song (id:1383664)

夏曼 Patricia (id:1401596)

张翰姝 (id:1401594)

成涛 (id:1401590)

Laura Rister Laura Rister (id:1401593)

李豹 (id:1401592)

周煜隺 Yuhe Zhou (id:1401591)

赵桐 Claire (id:1401597)

张天 TIan Zhang (id:1401595)

何美臻 Min He (id:1436756)

中中 Sheldon Chau (id:1449677)

翟歌 Ge Zhai (id:1449678)

贾峥 Zheng Jia (id:1449679)

李想 Xiang Li (id:1449680)

◎标 签 家庭 / 中国电影 / 青春 / 中国大陆 / 大陆 / 2019東京国際映画祭 / 中国 / 2019

◎简 介

1997年夏,一位八岁男孩天天目睹外婆的自行车被盗。面对大人们的无可奈何,忿忿不平的他决心以一己之力伸张正义。一场大胆的擒贼计划,让祖孙三代暗潮汹涌的秘密逐渐浮出水面。

◎获奖情况 (共1项)

第32届东京国际电影节 (2019)

亚洲未来单元 最佳影片

└──尤行 (id:1423562)

  1. ##### MediaInfo ######

  2. General

  3. Unique ID : 296808894151392694250075412810091677723 (0xDF4B504EAFC7C318B5EEF74EFA6F481B)

  4. Complete name : Summer.Knight.2019.WEB-DL.4K.H265.DDP.5.1-10015@BBQDDQ.COM.mkv

  5. Format : Matroska

  6. Format version : Version 4

  7. File size : 12.5 GiB

  8. Duration : 1 h 41 min

  9. Overall bit rate : 17.6 Mb/s

  10. Encoded date : UTC 2021-07-29 15:30:50

  11. Writing application : mkvmerge v58.0.0 ('Supper's Ready') 64-bit

  12. Writing library : libebml v1.4.2 + libmatroska v1.6.4


  13. Video

  14. ID : 1

  15. Format : HEVC

  16. Format/Info : High Efficiency Video Coding

  17. Format profile : Main@L5@Main

  18. Codec ID : V_MPEGH/ISO/HEVC

  19. Duration : 1 h 41 min

  20. Bit rate : 17.2 Mb/s

  21. Width : 3 840 pixels

  22. Height : 2 160 pixels

  23. Display aspect ratio : 16:9

  24. Frame rate mode : Constant

  25. Frame rate : 24.000 FPS

  26. Color space : YUV

  27. Chroma subsampling : 4:2:0

  28. Bit depth : 8 bits

  29. Bits/(Pixel*Frame) : 0.086

  30. Stream size : 12.2 GiB (97%)

  31. Default : Yes

  32. Forced : No


  33. Audio #1

  34. ID : 2

  35. Format : E-AC-3

  36. Format/Info : Enhanced AC-3

  37. Commercial name : Dolby Digital Plus

  38. Codec ID : A_EAC3

  39. Duration : 1 h 41 min

  40. Bit rate mode : Constant

  41. Bit rate : 256 kb/s

  42. Channel(s) : 6 channels

  43. Channel layout : L R C LFE Ls Rs

  44. Sampling rate : 48.0 kHz

  45. Frame rate : 31.250 FPS (1536 SPF)

  46. Compression mode : Lossy

  47. Stream size : 186 MiB (1%)

  48. Language : Chinese

  49. Service kind : Complete Main

  50. Default : Yes

  51. Forced : No


  52. Audio #2

  53. ID : 3

  54. Format : AAC LC

  55. Format/Info : Advanced Audio Codec Low Complexity

  56. Codec ID : A_AAC-2

  57. Duration : 1 h 41 min

  58. Bit rate : 192 kb/s

  59. Channel(s) : 2 channels

  60. Channel layout : L R

  61. Sampling rate : 44.1 kHz

  62. Frame rate : 43.066 FPS (1024 SPF)

  63. Compression mode : Lossy

  64. Stream size : 138 MiB (1%)

  65. Language : Chinese

  66. Default : No

  67. Forced : No


文件下载


除非特别注明,本文『夏夜骑士[国语音轨]Summer.Knight.2019.WEB-DL.4K.H265.DDP.5.1-迅雷下载 12.49GB』来源于互联网机器人自动抓取,非本站原创。 浮游电影网不对本文拥有版权,如有侵犯,请联系邮箱:fuyouu#yandex.com[#换成@]投诉。我们会在15个工作日内删除。 但烦请转载时请标明出处:“本文转载于『浮游电影网』,原文地址:https://www.fuyouu.com/13310.html

评论吧骚年!

发表你的见解   

昵称*

E-mail*(建议输入,以便收到博主回复的提示邮件)

验证码*

您可以使用eMule或eMule Mod(Windows)、aMule(Win、Linux、Mac)等软件下载eD2k链接。。
eMule收藏集(.emulecollection)文件是您选中的所有链接的列表文件。eMule可以直接下载它们。
按住SHIFT键选择可以选中多个选择框。
可用文件名和大小选择器来选择文件。
文件名选择器帮您根据文件名称或后缀来选择文件。不分大小写。
符号使用:
和:空格( )、+
不包含:-
或:|
转义:一对英文引号("");
匹配开头:^
匹配结尾:$
例如:
选中所有名称中包含有“eMule”或“0.49c”字眼,但不包含有“exe”字眼的:emule|0.49c -exe
选中所有名称的开头是“eMule”,结尾是“0.49c”的:^emule 0.49c$
选中所有名称中带有“eMule 0.49c”的(必须是“eMule 0.49c”,中间没有别的字符,不能是“eMule fake 0.49c”),需要转义:"emule 0.49c"
大小选择器帮您根据文件大小选择文件。