当前位置: 首页 >> 国产电影 >> 了不起的老爸[国语音轨]On.Your.Mark.2021.WEB-DL.4K.H265.DDP.5.1-迅雷下载 11.41GB >> 正文

了不起的老爸[国语音轨]On.Your.Mark.2021.WEB-DL.4K.H265.DDP.5.1-迅雷下载 11.41GB

2021年07月31日 11:47:54     电影发布:来源于网络     电影分类:国产电影     评论(0)    

了不起的老爸[国语音轨]On.Your.Mark.2021.WEB DL.4K.H265.DDP.5.1 迅雷下载 11.41GB 运动 家庭片 喜剧片 剧情片 国产电影  第1张

◎译 名 了不起的老爸 / 起跑 / On Your Mark

◎年 代 2021

◎产 地 中国大陆

◎类 别 剧情 / 喜剧 / 家庭 / 运动

◎语 言 汉语普通话

◎上映日期 2021-06-18(中国大陆)

◎IMDb链接 https://www.imdb.com/title/tt11317408/

◎豆瓣评分 6.9/10 (20193人评价)

◎豆瓣链接 https://movie.douban.com/subject/30391228/

◎片 长 104分钟

◎导 演 周青元 Keng Guan Chiu (id:1340233)

◎编 剧 徐逸洲 Yizhou Xu (id:1426979)

◎演 员 王砚辉 Yanhui Wang (id:1322085)

张宥浩 Youhao Zhang (id:1357957)

龚蓓苾 Beibi Gong (id:1274298)

李俊浩 Junhao Li (id:1354066)

鹤男 Nan He (id:1415884)

赵亮 Liang Zhao (id:1314024)

李彧 Yu Li (id:1316548)

刘金山 Jinshan Liu (id:1274288)

冯文娟 Wenjuan Feng (id:1325753)

郑志昊 Zhihao Zheng (id:1397531)

孙吉顺 Jishun Sun (id:1373508)

顾思斌 Sibin Gu (id:1434936)

吴问箫 Wenxiao Wu (id:1449716)

孙浩然 Haoran Sun (id:1449717)

李锦 Jin Li (id:1449718)

王莲菁 Lianjing Wang (id:1449719)

孙霁雯 Jiwen Sun (id:1449720)

刘倩文 Qianwen Liu (id:1449721)

白岸伟 Anwei Bai (id:1453840)

王希文 Owen Wang (id:1331668)

朴松日 Songri Piao (id:1403385)

邓文韬 Wentao Deng (id:1449722)

郑辰 Chen Zheng (id:1418910)

郑辰 Chen Zheng (id:1418910)

杜笃之 Du-Che Tu (id:1275159)

◎标 签 亲情 / 励志 / 温情 / 马拉松 / 运动 / 重庆 / 体育 / 家庭

◎简 介

一个患有罕见疾病却怀有“马拉松梦”的少年肖尔东(张宥浩 饰),一个固执逼迫儿子预习“盲人生活”的出租车司机父亲肖大明(王砚辉 饰),互不理解的父子俩,却在一场马拉松比赛中“互换身份”,并肩站在了起跑线上……影片通过对“命运”持有不同态度的一对单亲家庭父子,讲述了一个用爱向阳而生的故事。

  1. ##### MediaInfo ######

  2. General

  3. Unique ID : 225626044236725216871988208881401857313 (0xA9BDFED7F7E2E26836AFF3D61D140521)

  4. Complete name : On.Your.Mark.2021.WEB-DL.4K.H265.DDP.5.1-10015@BBQDDQ.COM.mkv

  5. Format : Matroska

  6. Format version : Version 4

  7. File size : 11.4 GiB

  8. Duration : 1 h 43 min

  9. Overall bit rate : 15.8 Mb/s

  10. Encoded date : UTC 2021-07-30 08:26:36

  11. Writing application : mkvmerge v58.0.0 ('Supper's Ready') 64-bit

  12. Writing library : libebml v1.4.2 + libmatroska v1.6.4


  13. Video

  14. ID : 1

  15. Format : HEVC

  16. Format/Info : High Efficiency Video Coding

  17. Format profile : Main@L5@Main

  18. Codec ID : V_MPEGH/ISO/HEVC

  19. Duration : 1 h 43 min

  20. Bit rate : 15.4 Mb/s

  21. Width : 3 840 pixels

  22. Height : 1 608 pixels

  23. Display aspect ratio : 2.40:1

  24. Frame rate mode : Constant

  25. Frame rate : 24.000 FPS

  26. Color space : YUV

  27. Chroma subsampling : 4:2:0

  28. Bit depth : 8 bits

  29. Bits/(Pixel*Frame) : 0.104

  30. Stream size : 11.1 GiB (97%)

  31. Default : Yes

  32. Forced : No


  33. Audio #1

  34. ID : 2

  35. Format : E-AC-3

  36. Format/Info : Enhanced AC-3

  37. Commercial name : Dolby Digital Plus

  38. Codec ID : A_EAC3

  39. Duration : 1 h 43 min

  40. Bit rate mode : Constant

  41. Bit rate : 256 kb/s

  42. Channel(s) : 6 channels

  43. Channel layout : L R C LFE Ls Rs

  44. Sampling rate : 48.0 kHz

  45. Frame rate : 31.250 FPS (1536 SPF)

  46. Compression mode : Lossy

  47. Stream size : 189 MiB (2%)

  48. Language : Chinese

  49. Service kind : Complete Main

  50. Default : Yes

  51. Forced : No


  52. Audio #2

  53. ID : 3

  54. Format : AAC LC

  55. Format/Info : Advanced Audio Codec Low Complexity

  56. Codec ID : A_AAC-2

  57. Duration : 1 h 43 min

  58. Bit rate : 192 kb/s

  59. Channel(s) : 2 channels

  60. Channel layout : L R

  61. Sampling rate : 44.1 kHz

  62. Frame rate : 43.066 FPS (1024 SPF)

  63. Compression mode : Lossy

  64. Stream size : 140 MiB (1%)

  65. Language : Chinese

  66. Default : Yes

  67. Forced : No



文件下载


除非特别注明,本文『了不起的老爸[国语音轨]On.Your.Mark.2021.WEB-DL.4K.H265.DDP.5.1-迅雷下载 11.41GB』来源于互联网机器人自动抓取,非本站原创。 浮游电影网不对本文拥有版权,如有侵犯,请联系邮箱:fuyouu#yandex.com[#换成@]投诉。我们会在15个工作日内删除。 但烦请转载时请标明出处:“本文转载于『浮游电影网』,原文地址:https://www.fuyouu.com/13309.html

评论吧骚年!

发表你的见解   

昵称*

E-mail*(建议输入,以便收到博主回复的提示邮件)

验证码*

您可以使用eMule或eMule Mod(Windows)、aMule(Win、Linux、Mac)等软件下载eD2k链接。。
eMule收藏集(.emulecollection)文件是您选中的所有链接的列表文件。eMule可以直接下载它们。
按住SHIFT键选择可以选中多个选择框。
可用文件名和大小选择器来选择文件。
文件名选择器帮您根据文件名称或后缀来选择文件。不分大小写。
符号使用:
和:空格( )、+
不包含:-
或:|
转义:一对英文引号("");
匹配开头:^
匹配结尾:$
例如:
选中所有名称中包含有“eMule”或“0.49c”字眼,但不包含有“exe”字眼的:emule|0.49c -exe
选中所有名称的开头是“eMule”,结尾是“0.49c”的:^emule 0.49c$
选中所有名称中带有“eMule 0.49c”的(必须是“eMule 0.49c”,中间没有别的字符,不能是“eMule fake 0.49c”),需要转义:"emule 0.49c"
大小选择器帮您根据文件大小选择文件。