当前位置: 首页 >> 日韩电影 >> 浪客剑心 最终章 追忆篇[简繁字幕]Rurouni.Kenshin.The.Beginning.2021.1080p.NF.WEB-DL.DDP5.1.x264-迅雷下载 9.14GB >> 正文

浪客剑心 最终章 追忆篇[简繁字幕]Rurouni.Kenshin.The.Beginning.2021.1080p.NF.WEB-DL.DDP5.1.x264-迅雷下载 9.14GB

2021年07月31日 11:46:38     电影发布:来源于网络     电影分类:日韩电影     评论(0)    

浪客剑心 最终章 追忆篇[简繁字幕]Rurouni.Kenshin.The.Beginning.2021.1080p.NF.WEB DL.DDP5.1.x264 迅雷下载 9.14GB 冒险片 动作片 剧情片 日韩电影  第1张

◎译 名 浪客剑心 最终章 追忆篇 / 浪客剑心:最终章之追忆篇 / 浪客剑心 真人版5 / 神剑闯江湖:The Beginning / るろうに剣心 最終章 追憶編 / るろうに剣心 続編5

◎片 名 るろうに剣心 最終章 The Beginning

◎年 代 2021

◎产 地 日本

◎类 别 剧情 / 动作 / 冒险

◎语 言 日语

◎上映日期 2021-06-04(日本) / 2021-07-30(日本网络)

◎IMDb链接 https://www.imdb.com/title/tt11991748/

◎豆瓣评分 8.8/10 (1779人评价)

◎豆瓣链接 https://movie.douban.com/subject/33407124/

◎片 长 137分钟

◎导 演 大友启史 Keishi Ohtomo (id:1318593)

◎编 剧 和月伸宏 Nobuhiro Watsuki (id:1018873)

大友启史 Keishi Ohtomo (id:1318593)

◎演 员 佐藤健 Takeru Satoh (id:1227580)

有村架纯 Kasumi Arimura (id:1275528)

高桥一生 Issey Takahashi (id:1275907)

北村一辉 Kazuki Kitamura (id:1012650)

江口洋介 Y?suke Eguchi (id:1088015)

村上虹郎 Nijiro Murakami (id:1342488)

安藤政信 Masanobu And? (id:1045426)

大西信满 SHIMA OHNISHI (id:1324431)

池内万作 Mansaku Ikeuchi (id:1000031)

藤本隆宏 Takahiro Fujimoto (id:1320010)

和田聪宏 Toshihiro Wada (id:1002255)

中村达也 Tatsuya Nakamura (id:1345585)

荒木飞羽 Towa Araki (id:1379124)

洼田正孝 Masataka Kubota (id:1314832)

平野生成 Kinari Hirano (id:1342277)

堀田真由 Mayu Hotta (id:1372623)

一之濑亘 Wataru Ichinose (id:1390547)

石田法嗣 Hoshi Ishida (id:1197942)

成田瑛基 Eiki Narita (id:1442745)

奥野瑛太 Eita Okuno (id:1353121)

渡边真起子 Makiko Watanabe (id:1051943)

武井咲 Emi Takei (id:1275344)

新田真剑佑 Mackenyu Arata (id:1350197)

青木崇高 Munetaka Aoki (id:1318594)

苍井优 Yu Aoi (id:1018990)

伊势谷友介 Y?suke Iseya (id:1110160)

土屋太凤 Tao Tsuchiya (id:1315335)

三浦涼介 Ryosuke Miura (id:1314874)

音尾琢真 Takuma Otoo (id:1004493)

鹤见辰吾 Shingo Tsurumi (id:1017055)

中原丈雄 Takeo Nakahara (id:1319743)

◎标 签 佐藤健 / 日本 / 漫画改编 / 动作 / 真人版 / 武士 / 2021 / 浪客剑心

◎简 介

幕府末期,日本陷入动荡。绯村剑心因剑术高超,被冠以“刽子手拔刀斋”之名,效力于长州藩倒幕部队首领桂小五郎的手下。一天,剑心救下一位名为雪代巴的年轻女子,却被其目睹了杀人行径,他只好将她带到长州藩众人的落脚处。不久后,长州藩武士因池田屋事件引兵上京,随后于禁门之变中战败。剑心与巴以夫妻名义隐居乡间,他第一次感受到了内心的安定。然而,巴的突然失踪打破了这份平静,剑心脸上的十字伤之谜也终于被揭开。

  1. ##### MediaInfo ######

  2. General

  3. Unique ID : 283981916083155717617663747666436370644 (0xD5A4ED76343F3F869467CAFA0F9330D4)

  4. Complete name : Rurouni.Kenshin.The.Beginning.2021.1080p.NF.WEB-DL.DDP5.1.x264-10002@BBQDDQ.COM.mkv

  5. Format : Matroska

  6. Format version : Version 4

  7. File size : 9.13 GiB

  8. Duration : 2 h 18 min

  9. Overall bit rate mode : Variable

  10. Overall bit rate : 9 464 kb/s

  11. Encoded date : UTC 2021-07-30 07:32:00

  12. Writing application : mkvmerge v44.0.0 ('Domino') 64-bit

  13. Writing library : libebml v1.3.10 + libmatroska v1.5.2


  14. Video

  15. ID : 1

  16. Format : AVC

  17. Format/Info : Advanced Video Codec

  18. Format profile : High@L4

  19. Format settings : CABAC / 4 Ref Frames

  20. Format settings, CABAC : Yes

  21. Format settings, Reference frames : 4 frames

  22. Codec ID : V_MPEG4/ISO/AVC

  23. Duration : 2 h 18 min

  24. Bit rate mode : Variable

  25. Bit rate : 3 698 kb/s

  26. Maximum bit rate : 20.0 Mb/s

  27. Width : 1 920 pixels

  28. Height : 1 080 pixels

  29. Display aspect ratio : 16:9

  30. Frame rate mode : Constant

  31. Frame rate : 23.976 (24000/1001/53354) FPS

  32. Color space : YUV

  33. Chroma subsampling : 4:2:0

  34. Bit depth : 8 bits

  35. Scan type : Progressive

  36. Bits/(Pixel*Frame) : 0.074

  37. Stream size : 3.57 GiB (39%)

  38. Writing library : x264 core 148 r2722 1b0121b

  39. Encoding settings : cabac=1 / ref=4 / deblock=1:0:0 / analyse=0x3:0x111 / me=umh / subme=10 / psy=1 / psy_rd=1.00:0.00 / mixed_ref=1 / me_range=120 / chroma_me=1 / trellis=2 / 8x8dct=1 / cqm=0 / deadzone=21,11 / fast_pskip=1 / chroma_qp_offset=-2 / threads=8 / lookahead_threads=2 / sliced_threads=0 / nr=0 / decimate=1 / interlaced=0 / NTMzNTQ= / bluray_compat=0 / stitchable=1 / constrained_intra=0 / bframes=16 / b_pyramid=2 / b_adapt=2 / b_bias=0 / direct=3 / weightb=1 / open_gop=0 / weightp=2 / keyint=240 / keyint_min=121 / scenecut=0 / intra_refresh=0 / rc_lookahead=240 / rc=crf / mbtree=1 / crf=18.0 / qcomp=0.50 / qpmin=6 / qpmax=51 / qpstep=4 / vbv_maxrate=20000 / vbv_bufsize=25000 / crf_max=0.0 / nal_hrd=vbr / filler=0 / NTMzNTQ=LmsMAP37EqsCpk / ip_ratio=1.40 / aq=1:0.80

  40. Default : Yes

  41. Forced : No


  42. Audio #1

  43. ID : 2

  44. Format : E-AC-3

  45. Format/Info : Enhanced AC-3

  46. Commercial name : Dolby Digital Plus

  47. Codec ID : A_EAC3

  48. Duration : 2 h 18 min

  49. Bit rate mode : Constant

  50. Bit rate : 640 kb/s

  51. Channel(s) : 6 channels

  52. Channel layout : L R C LFE Ls Rs

  53. Sampling rate : 48.0 kHz

  54. Frame rate : 31.250 FPS (1536 SPF)

  55. Compression mode : Lossy

  56. Stream size : 633 MiB (7%)

  57. Title : Japanese

  58. Language : Japanese

  59. Service kind : Complete Main

  60. Default : Yes

  61. Forced : No


  62. Audio #2

  63. ID : 3

  64. Format : E-AC-3

  65. Format/Info : Enhanced AC-3

  66. Commercial name : Dolby Digital Plus

  67. Codec ID : A_EAC3

  68. Duration : 2 h 18 min

  69. Bit rate mode : Constant

  70. Bit rate : 640 kb/s

  71. Channel(s) : 6 channels

  72. Channel layout : L R C LFE Ls Rs

  73. Sampling rate : 48.0 kHz

  74. Frame rate : 31.250 FPS (1536 SPF)

  75. Compression mode : Lossy

  76. Stream size : 633 MiB (7%)

  77. Title : English

  78. Language : English

  79. Service kind : Complete Main

  80. Default : No

  81. Forced : No


  82. Audio #3

  83. ID : 4

  84. Format : E-AC-3

  85. Format/Info : Enhanced AC-3

  86. Commercial name : Dolby Digital Plus

  87. Codec ID : A_EAC3

  88. Duration : 2 h 18 min

  89. Bit rate mode : Constant

  90. Bit rate : 640 kb/s

  91. Channel(s) : 6 channels

  92. Channel layout : L R C LFE Ls Rs

  93. Sampling rate : 48.0 kHz

  94. Frame rate : 31.250 FPS (1536 SPF)

  95. Compression mode : Lossy

  96. Stream size : 633 MiB (7%)

  97. Title : French

  98. Language : French

  99. Service kind : Complete Main

  100. Default : No

  101. Forced : No


  102. Audio #4

  103. ID : 5

  104. Format : E-AC-3

  105. Format/Info : Enhanced AC-3

  106. Commercial name : Dolby Digital Plus

  107. Codec ID : A_EAC3

  108. Duration : 2 h 18 min

  109. Bit rate mode : Constant

  110. Bit rate : 640 kb/s

  111. Channel(s) : 6 channels

  112. Channel layout : L R C LFE Ls Rs

  113. Sampling rate : 48.0 kHz

  114. Frame rate : 31.250 FPS (1536 SPF)

  115. Compression mode : Lossy

  116. Stream size : 633 MiB (7%)

  117. Title : German

  118. Language : German

  119. Service kind : Complete Main

  120. Default : No

  121. Forced : No


  122. Audio #5

  123. ID : 6

  124. Format : E-AC-3

  125. Format/Info : Enhanced AC-3

  126. Commercial name : Dolby Digital Plus

  127. Codec ID : A_EAC3

  128. Duration : 2 h 18 min

  129. Bit rate mode : Constant

  130. Bit rate : 640 kb/s

  131. Channel(s) : 6 channels

  132. Channel layout : L R C LFE Ls Rs

  133. Sampling rate : 48.0 kHz

  134. Frame rate : 31.250 FPS (1536 SPF)

  135. Compression mode : Lossy

  136. Stream size : 633 MiB (7%)

  137. Title : Italian

  138. Language : Italian

  139. Service kind : Complete Main

  140. Default : No

  141. Forced : No


  142. Audio #6

  143. ID : 7

  144. Format : E-AC-3

  145. Format/Info : Enhanced AC-3

  146. Commercial name : Dolby Digital Plus

  147. Codec ID : A_EAC3

  148. Duration : 2 h 18 min

  149. Bit rate mode : Constant

  150. Bit rate : 640 kb/s

  151. Channel(s) : 6 channels

  152. Channel layout : L R C LFE Ls Rs

  153. Sampling rate : 48.0 kHz

  154. Frame rate : 31.250 FPS (1536 SPF)

  155. Compression mode : Lossy

  156. Stream size : 633 MiB (7%)

  157. Title : Brazilian Portuguese

  158. Language : Portuguese

  159. Service kind : Complete Main

  160. Default : No

  161. Forced : No


  162. Audio #7

  163. ID : 8

  164. Format : E-AC-3

  165. Format/Info : Enhanced AC-3

  166. Commercial name : Dolby Digital Plus

  167. Codec ID : A_EAC3

  168. Duration : 2 h 18 min

  169. Bit rate mode : Constant

  170. Bit rate : 640 kb/s

  171. Channel(s) : 6 channels

  172. Channel layout : L R C LFE Ls Rs

  173. Sampling rate : 48.0 kHz

  174. Frame rate : 31.250 FPS (1536 SPF)

  175. Compression mode : Lossy

  176. Stream size : 633 MiB (7%)

  177. Title : Spanish

  178. Language : Spanish

  179. Service kind : Complete Main

  180. Default : No

  181. Forced : No


  182. Audio #8

  183. ID : 9

  184. Format : E-AC-3

  185. Format/Info : Enhanced AC-3

  186. Commercial name : Dolby Digital Plus

  187. Codec ID : A_EAC3

  188. Duration : 2 h 18 min

  189. Bit rate mode : Constant

  190. Bit rate : 640 kb/s

  191. Channel(s) : 6 channels

  192. Channel layout : L R C LFE Ls Rs

  193. Sampling rate : 48.0 kHz

  194. Frame rate : 31.250 FPS (1536 SPF)

  195. Compression mode : Lossy

  196. Stream size : 633 MiB (7%)

  197. Title : European Spanish

  198. Language : Spanish

  199. Service kind : Complete Main

  200. Default : No

  201. Forced : No


  202. Audio #9

  203. ID : 10

  204. Format : E-AC-3

  205. Format/Info : Enhanced AC-3

  206. Commercial name : Dolby Digital Plus

  207. Codec ID : A_EAC3

  208. Duration : 2 h 18 min

  209. Bit rate mode : Constant

  210. Bit rate : 640 kb/s

  211. Channel(s) : 6 channels

  212. Channel layout : L R C LFE Ls Rs

  213. Sampling rate : 48.0 kHz

  214. Frame rate : 31.250 FPS (1536 SPF)

  215. Compression mode : Lossy

  216. Stream size : 633 MiB (7%)

  217. Title : Thai

  218. Language : Thai

  219. Service kind : Complete Main

  220. Default : No

  221. Forced : No


  222. Text #1

  223. ID : 11

  224. Format : UTF-8

  225. Codec ID : S_TEXT/UTF8

  226. Codec ID/Info : UTF-8 Plain Text

  227. Duration : 2 h 16 min

  228. Bit rate : 21 b/s

  229. Count of elements : 792

  230. Stream size : 21.1 KiB (0%)

  231. Title : English

  232. Language : English

  233. Default : Yes

  234. Forced : No


  235. Text #2

  236. ID : 12

  237. Format : UTF-8

  238. Codec ID : S_TEXT/UTF8

  239. Codec ID/Info : UTF-8 Plain Text

  240. Duration : 2 h 16 min

  241. Bit rate : 34 b/s

  242. Count of elements : 793

  243. Stream size : 34.4 KiB (0%)

  244. Title : Arabic

  245. Language : Arabic

  246. Default : No

  247. Forced : No


  248. Text #3

  249. ID : 13

  250. Format : UTF-8

  251. Codec ID : S_TEXT/UTF8

  252. Codec ID/Info : UTF-8 Plain Text

  253. Duration : 2 h 16 min

  254. Bit rate : 24 b/s

  255. Count of elements : 793

  256. Stream size : 24.7 KiB (0%)

  257. Title : Chinese Simplified

  258. Language : Chinese

  259. Default : No

  260. Forced : No


  261. Text #4

  262. ID : 14

  263. Format : UTF-8

  264. Codec ID : S_TEXT/UTF8

  265. Codec ID/Info : UTF-8 Plain Text

  266. Duration : 2 h 16 min

  267. Bit rate : 25 b/s

  268. Count of elements : 793

  269. Stream size : 25.3 KiB (0%)

  270. Title : Chinese Traditional

  271. Language : Chinese

  272. Default : No

  273. Forced : No


  274. Text #5

  275. ID : 15

  276. Format : UTF-8

  277. Codec ID : S_TEXT/UTF8

  278. Codec ID/Info : UTF-8 Plain Text

  279. Duration : 2 h 16 min

  280. Bit rate : 20 b/s

  281. Count of elements : 793

  282. Stream size : 20.4 KiB (0%)

  283. Title : Croatian

  284. Language : Croatian

  285. Default : No

  286. Forced : No


  287. Text #6

  288. ID : 16

  289. Format : UTF-8

  290. Codec ID : S_TEXT/UTF8

  291. Codec ID/Info : UTF-8 Plain Text

  292. Duration : 2 h 16 min

  293. Bit rate : 21 b/s

  294. Count of elements : 793

  295. Stream size : 22.0 KiB (0%)

  296. Title : Czech

  297. Language : Czech

  298. Default : No

  299. Forced : No


  300. Text #7

  301. ID : 17

  302. Format : UTF-8

  303. Codec ID : S_TEXT/UTF8

  304. Codec ID/Info : UTF-8 Plain Text

  305. Duration : 2 h 16 min

  306. Bit rate : 22 b/s

  307. Count of elements : 793

  308. Stream size : 22.3 KiB (0%)

  309. Title : Danish

  310. Language : Danish

  311. Default : No

  312. Forced : No


  313. Text #8

  314. ID : 18

  315. Format : UTF-8

  316. Codec ID : S_TEXT/UTF8

  317. Codec ID/Info : UTF-8 Plain Text

  318. Duration : 2 h 16 min

  319. Bit rate : 21 b/s

  320. Count of elements : 793

  321. Stream size : 21.5 KiB (0%)

  322. Title : Dutch

  323. Language : Dutch

  324. Default : No

  325. Forced : No


  326. Text #9

  327. ID : 19

  328. Format : UTF-8

  329. Codec ID : S_TEXT/UTF8

  330. Codec ID/Info : UTF-8 Plain Text

  331. Duration : 2 h 16 min

  332. Bit rate : 22 b/s

  333. Count of elements : 793

  334. Stream size : 22.2 KiB (0%)

  335. Title : Finnish

  336. Language : Finnish

  337. Default : No

  338. Forced : No


  339. Text #10

  340. ID : 20

  341. Format : UTF-8

  342. Codec ID : S_TEXT/UTF8

  343. Codec ID/Info : UTF-8 Plain Text

  344. Duration : 2 h 16 min

  345. Bit rate : 23 b/s

  346. Count of elements : 794

  347. Stream size : 23.7 KiB (0%)

  348. Title : French

  349. Language : French

  350. Default : No

  351. Forced : No


  352. Text #11

  353. ID : 21

  354. Format : UTF-8

  355. Codec ID : S_TEXT/UTF8

  356. Codec ID/Info : UTF-8 Plain Text

  357. Duration : 2 h 16 min

  358. Bit rate : 23 b/s

  359. Count of elements : 793

  360. Stream size : 23.7 KiB (0%)

  361. Title : German

  362. Language : German

  363. Default : No

  364. Forced : No


  365. Text #12

  366. ID : 22

  367. Format : UTF-8

  368. Codec ID : S_TEXT/UTF8

  369. Codec ID/Info : UTF-8 Plain Text

  370. Duration : 2 h 16 min

  371. Bit rate : 40 b/s

  372. Count of elements : 793

  373. Stream size : 40.3 KiB (0%)

  374. Title : Greek

  375. Language : Greek

  376. Default : No

  377. Forced : No


  378. Text #13

  379. ID : 23

  380. Format : UTF-8

  381. Codec ID : S_TEXT/UTF8

  382. Codec ID/Info : UTF-8 Plain Text

  383. Duration : 2 h 16 min

  384. Bit rate : 31 b/s

  385. Count of elements : 793

  386. Stream size : 31.7 KiB (0%)

  387. Title : Hebrew

  388. Language : Hebrew

  389. Default : No

  390. Forced : No


  391. Text #14

  392. ID : 24

  393. Format : UTF-8

  394. Codec ID : S_TEXT/UTF8

  395. Codec ID/Info : UTF-8 Plain Text

  396. Duration : 2 h 16 min

  397. Bit rate : 21 b/s

  398. Count of elements : 793

  399. Stream size : 22.0 KiB (0%)

  400. Title : Hungarian

  401. Language : Hungarian

  402. Default : No

  403. Forced : No


  404. Text #15

  405. ID : 25

  406. Format : UTF-8

  407. Codec ID : S_TEXT/UTF8

  408. Codec ID/Info : UTF-8 Plain Text

  409. Duration : 2 h 16 min

  410. Bit rate : 22 b/s

  411. Count of elements : 793

  412. Stream size : 22.8 KiB (0%)

  413. Title : Indonesian

  414. Language : Indonesian

  415. Default : No

  416. Forced : No


  417. Text #16

  418. ID : 26

  419. Format : UTF-8

  420. Codec ID : S_TEXT/UTF8

  421. Codec ID/Info : UTF-8 Plain Text

  422. Duration : 2 h 16 min

  423. Bit rate : 22 b/s

  424. Count of elements : 793

  425. Stream size : 22.2 KiB (0%)

  426. Title : Italian

  427. Language : Italian

  428. Default : No

  429. Forced : No


  430. Text #17

  431. ID : 27

  432. Format : UTF-8

  433. Codec ID : S_TEXT/UTF8

  434. Codec ID/Info : UTF-8 Plain Text

  435. Duration : 2 h 16 min

  436. Bit rate : 39 b/s

  437. Count of elements : 1016

  438. Stream size : 39.3 KiB (0%)

  439. Title : Japanese

  440. Language : Japanese

  441. Default : No

  442. Forced : No


  443. Text #18

  444. ID : 28

  445. Format : UTF-8

  446. Codec ID : S_TEXT/UTF8

  447. Codec ID/Info : UTF-8 Plain Text

  448. Duration : 4 s 588 ms

  449. Bit rate : 45 b/s

  450. Count of elements : 1

  451. Stream size : 26.0 Bytes (0%)

  452. Title : Japanese (Forced)

  453. Language : Japanese

  454. Default : No

  455. Forced : Yes


  456. Text #19

  457. ID : 29

  458. Format : UTF-8

  459. Codec ID : S_TEXT/UTF8

  460. Codec ID/Info : UTF-8 Plain Text

  461. Duration : 2 h 16 min

  462. Bit rate : 28 b/s

  463. Count of elements : 805

  464. Stream size : 28.5 KiB (0%)

  465. Title : Korean

  466. Language : Korean

  467. Default : No

  468. Forced : No


  469. Text #20

  470. ID : 30

  471. Format : UTF-8

  472. Codec ID : S_TEXT/UTF8

  473. Codec ID/Info : UTF-8 Plain Text

  474. Duration : 2 h 16 min

  475. Bit rate : 22 b/s

  476. Count of elements : 795

  477. Stream size : 23.0 KiB (0%)

  478. Title : Malay

  479. Language : Malay

  480. Default : No

  481. Forced : No


  482. Text #21

  483. ID : 31

  484. Format : UTF-8

  485. Codec ID : S_TEXT/UTF8

  486. Codec ID/Info : UTF-8 Plain Text

  487. Duration : 2 h 16 min

  488. Bit rate : 20 b/s

  489. Count of elements : 793

  490. Stream size : 20.9 KiB (0%)

  491. Title : Norwegian Bokmal

  492. Language : Norwegian Bokmal

  493. Default : No

  494. Forced : No


  495. Text #22

  496. ID : 32

  497. Format : UTF-8

  498. Codec ID : S_TEXT/UTF8

  499. Codec ID/Info : UTF-8 Plain Text

  500. Duration : 2 h 16 min

  501. Bit rate : 21 b/s

  502. Count of elements : 793

  503. Stream size : 21.3 KiB (0%)

  504. Title : Polish

  505. Language : Polish

  506. Default : No

  507. Forced : No


  508. Text #23

  509. ID : 33

  510. Format : UTF-8

  511. Codec ID : S_TEXT/UTF8

  512. Codec ID/Info : UTF-8 Plain Text

  513. Duration : 2 h 16 min

  514. Bit rate : 22 b/s

  515. Count of elements : 793

  516. Stream size : 22.4 KiB (0%)

  517. Title : Portuguese

  518. Language : Portuguese

  519. Default : No

  520. Forced : No


  521. Text #24

  522. ID : 34

  523. Format : UTF-8

  524. Codec ID : S_TEXT/UTF8

  525. Codec ID/Info : UTF-8 Plain Text

  526. Duration : 2 h 16 min

  527. Bit rate : 21 b/s

  528. Count of elements : 793

  529. Stream size : 21.7 KiB (0%)

  530. Title : Brazilian Portuguese

  531. Language : Portuguese

  532. Default : No

  533. Forced : No


  534. Text #25

  535. ID : 35

  536. Format : UTF-8

  537. Codec ID : S_TEXT/UTF8

  538. Codec ID/Info : UTF-8 Plain Text

  539. Duration : 2 h 16 min

  540. Bit rate : 24 b/s

  541. Count of elements : 793

  542. Stream size : 25.0 KiB (0%)

  543. Title : Romanian

  544. Language : Romanian

  545. Default : No

  546. Forced : No


  547. Text #26

  548. ID : 36

  549. Format : UTF-8

  550. Codec ID : S_TEXT/UTF8

  551. Codec ID/Info : UTF-8 Plain Text

  552. Duration : 2 h 16 min

  553. Bit rate : 38 b/s

  554. Count of elements : 793

  555. Stream size : 38.2 KiB (0%)

  556. Title : Russian

  557. Language : Russian

  558. Default : No

  559. Forced : No


  560. Text #27

  561. ID : 37

  562. Format : UTF-8

  563. Codec ID : S_TEXT/UTF8

  564. Codec ID/Info : UTF-8 Plain Text

  565. Duration : 2 h 16 min

  566. Bit rate : 22 b/s

  567. Count of elements : 793

  568. Stream size : 22.2 KiB (0%)

  569. Title : Spanish

  570. Language : Spanish

  571. Default : No

  572. Forced : No


  573. Text #28

  574. ID : 38

  575. Format : UTF-8

  576. Codec ID : S_TEXT/UTF8

  577. Codec ID/Info : UTF-8 Plain Text

  578. Duration : 2 h 16 min

  579. Bit rate : 22 b/s

  580. Count of elements : 793

  581. Stream size : 22.2 KiB (0%)

  582. Title : European Spanish

  583. Language : Spanish

  584. Default : No

  585. Forced : No


  586. Text #29

  587. ID : 39

  588. Format : UTF-8

  589. Codec ID : S_TEXT/UTF8

  590. Codec ID/Info : UTF-8 Plain Text

  591. Duration : 2 h 16 min

  592. Bit rate : 21 b/s

  593. Count of elements : 793

  594. Stream size : 21.7 KiB (0%)

  595. Title : Swedish

  596. Language : Swedish

  597. Default : No

  598. Forced : No


  599. Text #30

  600. ID : 40

  601. Format : UTF-8

  602. Codec ID : S_TEXT/UTF8

  603. Codec ID/Info : UTF-8 Plain Text

  604. Duration : 2 h 16 min

  605. Bit rate : 66 b/s

  606. Count of elements : 810

  607. Stream size : 66.3 KiB (0%)

  608. Title : Thai

  609. Language : Thai

  610. Default : No

  611. Forced : No


  612. Text #31

  613. ID : 41

  614. Format : UTF-8

  615. Codec ID : S_TEXT/UTF8

  616. Codec ID/Info : UTF-8 Plain Text

  617. Duration : 2 h 16 min

  618. Bit rate : 22 b/s

  619. Count of elements : 793

  620. Stream size : 22.4 KiB (0%)

  621. Title : Turkish

  622. Language : Turkish

  623. Default : No

  624. Forced : No


  625. Text #32

  626. ID : 42

  627. Format : UTF-8

  628. Codec ID : S_TEXT/UTF8

  629. Codec ID/Info : UTF-8 Plain Text

  630. Duration : 2 h 16 min

  631. Bit rate : 32 b/s

  632. Count of elements : 793

  633. Stream size : 32.9 KiB (0%)

  634. Title : Ukrainian

  635. Language : Ukrainian

  636. Default : No

  637. Forced : No


  638. Text #33

  639. ID : 43

  640. Format : UTF-8

  641. Codec ID : S_TEXT/UTF8

  642. Codec ID/Info : UTF-8 Plain Text

  643. Duration : 2 h 16 min

  644. Bit rate : 32 b/s

  645. Count of elements : 793

  646. Stream size : 32.7 KiB (0%)

  647. Title : Vietnamese

  648. Language : Vietnamese

  649. Default : No

  650. Forced : No



文件下载


除非特别注明,本文『浪客剑心 最终章 追忆篇[简繁字幕]Rurouni.Kenshin.The.Beginning.2021.1080p.NF.WEB-DL.DDP5.1.x264-迅雷下载 9.14GB』来源于互联网机器人自动抓取,非本站原创。 浮游电影网不对本文拥有版权,如有侵犯,请联系邮箱:fuyouu#yandex.com[#换成@]投诉。我们会在15个工作日内删除。 但烦请转载时请标明出处:“本文转载于『浮游电影网』,原文地址:https://www.fuyouu.com/13308.html

评论吧骚年!

发表你的见解   

昵称*

E-mail*(建议输入,以便收到博主回复的提示邮件)

验证码*

您可以使用eMule或eMule Mod(Windows)、aMule(Win、Linux、Mac)等软件下载eD2k链接。。
eMule收藏集(.emulecollection)文件是您选中的所有链接的列表文件。eMule可以直接下载它们。
按住SHIFT键选择可以选中多个选择框。
可用文件名和大小选择器来选择文件。
文件名选择器帮您根据文件名称或后缀来选择文件。不分大小写。
符号使用:
和:空格( )、+
不包含:-
或:|
转义:一对英文引号("");
匹配开头:^
匹配结尾:$
例如:
选中所有名称中包含有“eMule”或“0.49c”字眼,但不包含有“exe”字眼的:emule|0.49c -exe
选中所有名称的开头是“eMule”,结尾是“0.49c”的:^emule 0.49c$
选中所有名称中带有“eMule 0.49c”的(必须是“eMule 0.49c”,中间没有别的字符,不能是“eMule fake 0.49c”),需要转义:"emule 0.49c"
大小选择器帮您根据文件大小选择文件。