当前位置: 首页 >> 欧美电影 >> 新婚告急[中文字幕]Just.Married.2003.1080p.BluRay.DTS.x265-10bit-迅雷下载 10.02GB >> 正文

新婚告急[中文字幕]Just.Married.2003.1080p.BluRay.DTS.x265-10bit-迅雷下载 10.02GB

2021年07月31日 11:32:17     电影发布:来源于网络     电影分类:欧美电影     评论(0)    

新婚告急[中文字幕]Just.Married.2003.1080p.BluRay.DTS.x265 10bit 迅雷下载 10.02GB 爱情片 喜剧片 欧美电影  第1张

◎译 名 新婚告急 / 玩串婚后事

◎片 名 Just Married

◎年 代 2003

◎产 地 美国 / 德国

◎类 别 喜剧 / 爱情

◎语 言 英语 / 法语 / 德语 / 意大利语

◎上映日期 2003-01-10

◎IMDb链接 https://www.imdb.com/title/tt0305711/

◎豆瓣评分 6.3/10 (8212人评价)

◎豆瓣链接 https://movie.douban.com/subject/1305934/

◎片 长 95 分钟

◎导 演 肖恩·利维 Shawn Levy (id:1289935)

◎演 员 阿什顿·库彻 Ashton Kutcher (id:1041016)

布莱特妮·墨菲 Brittany Murphy (id:1035650)

大卫·莫斯科 David Moscow (id:1040654)

莫奈特·玛佐 Monet Mazur (id:1000108)

克里斯蒂安·凯恩 Christian Kane (id:1009279)

Alanna Hanly Alanna Hanly (id:1179016)

莎莫·摩尔 Summer Moore (id:1169844)

克莱门特·冯·弗兰肯斯坦 Clement von Franckenstein (id:1168132)

Joseph Vassallo Joseph Vassallo (id:1160541)

Timmy Fitzpatrick Timmy Fitzpatrick (id:1302391)

萨德·拉金比尔 Thad Luckinbill (id:1115291)

维罗尼卡·卡维特 Veronica Cartwright (id:1002749)

大卫·拉斯彻 David Rasche (id:1025268)

雷蒙德·J·巴里 Raymond J. Barry (id:1032043)

Valeria Andrews Valeria Andrews (id:1056541)

Lorenzo Caccialanza Lorenzo Caccialanza (id:1078109)

乔治·盖恩斯 George Gaynes (id:1092511)

塔兰·基拉姆 Taran Killam (id:1105074)

劳伦·舒勒·唐纳 Lauren Shuler Donner (id:1009647)

克里斯托弗·贝克 Christophe Beck (id:1278180)

Jonathan Brown Jonathan Brown (id:1055699)

唐·齐默尔曼 Don Zimmerman (id:1301742)

希拉·贾菲 Sheila Jaffe (id:1287540)

Georgianne Walken Georgianne Walken (id:1300285)

Nina Ruscio Nina Ruscio (id:1051856)

K·C·福克斯 K.C. Fox (id:1283906)

Troy Sizemore Troy Sizemore (id:1297724)

Tricia Sawyer Tricia Sawyer (id:1139245)

Bernardo Galli Bernardo Galli (id:1101531)

布莱恩·哈纳伯 Brian Hanable (id:1090997)

◎标 签 爱情 / 喜剧 / 美国 / 美国电影 / BrittanyMurphy / AshtonKutcher / 青春 / 2003

◎简 介

莎拉(布莱特妮?墨菲 Brittany Murphy 饰)出身豪门,天生叛逆的她从来不想接受父母的安排:家人安排的高薪厚职她不屑一顾,反而当起了一名作家;对于他们安排的富有的“未来女婿”,她更是深恶痛绝。这天,莎拉偶遇了出身平凡的交通报道员汤姆(艾什顿?库彻 Ashton Kutcher 饰),两人很快堕入了爱河。然而莎拉的父母坚决反对,原因很简单,汤姆出身平民,平平无奇,这和他们心目中的乘龙快婿相去甚远,他们可不想这个平凡的男人成为家里的一份子。于是,在萨拉和汤姆婚后度蜜月时,一场旨在拆散这对小夫妻的闹剧上演了。加上两人出身的文化差异,萨拉和汤姆能否在新婚告急时共渡难关?

  1. ##### MediaInfo ######

  2. General

  3. Unique ID : 56578522028855858831532286008603519064 (0x2A90A081A8F5F59EBBC875AF16952858)

  4. Complete name : [email protected]kv

  5. Format : Matroska

  6. Format version : Version 4

  7. File size : 10.0 GiB

  8. Duration : 1 h 34 min

  9. Overall bit rate : 15.1 Mb/s

  10. Movie name : Just Married 2003 1080p BluRay DTS [email protected]

  11. Encoded date : UTC 2021-07-29 00:55:00

  12. Writing application : mkvmerge v38.0.0 ('The Silent Type') 64-bit

  13. Writing library : libebml v1.3.9 + libmatroska v1.5.2


  14. Video

  15. ID : 1

  16. Format : HEVC

  17. Format/Info : High Efficiency Video Coding

  18. Format profile : Main [email protected]@High

  19. Codec ID : V_MPEGH/ISO/HEVC

  20. Duration : 1 h 34 min

  21. Bit rate : 13.6 Mb/s

  22. Width : 1 920 pixels

  23. Height : 1 040 pixels

  24. Display aspect ratio : 1.85:1

  25. Frame rate mode : Constant

  26. Frame rate : 23.976 (24000/1001/53354) FPS

  27. Color space : YUV

  28. Chroma subsampling : 4:2:0

  29. Bit depth : 10 bits

  30. Bits/(Pixel*Frame) : 0.283

  31. Stream size : 8.98 GiB (90%)

  32. Title : [email protected]

  33. Writing library : x265 - H.265/HEVC codec

  34. Default : Yes

  35. Forced : No


  36. Audio

  37. ID : 2

  38. Format : DTS

  39. Format/Info : Digital Theater Systems

  40. Codec ID : A_DTS

  41. Duration : 1 h 34 min

  42. Bit rate mode : Constant

  43. Bit rate : 1 509 kb/s

  44. Channel(s) : 6 channels

  45. Channel layout : C L R Ls Rs LFE

  46. Sampling rate : 48.0 kHz

  47. Frame rate : 93.750 FPS (512 SPF)

  48. Bit depth : 24 bits

  49. Compression mode : Lossy

  50. Stream size : 1 023 MiB (10%)

  51. Title : English

  52. Language : English

  53. Default : Yes

  54. Forced : No


  55. Text #1

  56. ID : 3

  57. Format : PGS

  58. Muxing mode : zlib

  59. Codec ID : S_HDMV/PGS

  60. Codec ID/Info : Picture based subtitle format used on BDs/HD-DVDs

  61. Duration : 1 h 33 min

  62. Bit rate : 44.8 kb/s

  63. Count of elements : 3366

  64. Stream size : 29.9 MiB (0%)

  65. Title : CHS

  66. Language : Chinese

  67. Default : Yes

  68. Forced : No


  69. Text #2

  70. ID : 4

  71. Format : PGS

  72. Muxing mode : zlib

  73. Codec ID : S_HDMV/PGS

  74. Codec ID/Info : Picture based subtitle format used on BDs/HD-DVDs

  75. Duration : 1 h 33 min

  76. Bit rate : 46.3 kb/s

  77. Count of elements : 3366

  78. Stream size : 30.9 MiB (0%)

  79. Title : CHT

  80. Language : Chinese

  81. Default : No

  82. Forced : No


  83. Menu

  84. 00:00:00.000 : en:Chapter 01

  85. 00:05:57.983 : en:Chapter 02

  86. 00:11:08.126 : en:Chapter 03

  87. 00:13:49.120 : en:Chapter 04

  88. 00:18:25.896 : en:Chapter 05

  89. 00:20:33.190 : en:Chapter 06

  90. 00:24:50.656 : en:Chapter 07

  91. 00:29:46.159 : en:Chapter 08

  92. 00:32:59.394 : en:Chapter 09

  93. 00:36:06.998 : en:Chapter 10

  94. 00:39:41.838 : en:Chapter 11

  95. 00:41:29.779 : en:Chapter 12

  96. 00:44:04.725 : en:Chapter 13

  97. 00:46:36.669 : en:Chapter 14

  98. 00:49:47.818 : en:Chapter 15

  99. 00:53:11.772 : en:Chapter 16

  100. 00:56:13.954 : en:Chapter 17

  101. 00:58:33.552 : en:Chapter 18

  102. 01:00:51.857 : en:Chapter 19

  103. 01:06:06.004 : en:Chapter 20

  104. 01:13:07.633 : en:Chapter 21

  105. 01:15:24.520 : en:Chapter 22

  106. 01:20:15.853 : en:Chapter 23

  107. 01:23:05.105 : en:Chapter 24

  108. 01:24:40.450 : en:Chapter 25

  109. 01:26:57.796 : en:Chapter 26

  110. 01:28:50.575 : en:Chapter 27

  111. 01:31:21.476 : en:Chapter 28



文件下载


除非特别注明,本文『新婚告急[中文字幕]Just.Married.2003.1080p.BluRay.DTS.x265-10bit-迅雷下载 10.02GB』来源于互联网机器人自动抓取,非本站原创。 浮游电影网不对本文拥有版权,如有侵犯,请联系邮箱:fuyouu#yandex.com[#换成@]投诉。我们会在15个工作日内删除。 但烦请转载时请标明出处:“本文转载于『浮游电影网』,原文地址:https://www.fuyouu.com/13297.html

评论吧骚年!

发表你的见解   

昵称*

E-mail*(建议输入,以便收到博主回复的提示邮件)

验证码*

您可以使用eMule或eMule Mod(Windows)、aMule(Win、Linux、Mac)等软件下载eD2k链接。。
eMule收藏集(.emulecollection)文件是您选中的所有链接的列表文件。eMule可以直接下载它们。
按住SHIFT键选择可以选中多个选择框。
可用文件名和大小选择器来选择文件。
文件名选择器帮您根据文件名称或后缀来选择文件。不分大小写。
符号使用:
和:空格( )、+
不包含:-
或:|
转义:一对英文引号("");
匹配开头:^
匹配结尾:$
例如:
选中所有名称中包含有“eMule”或“0.49c”字眼,但不包含有“exe”字眼的:emule|0.49c -exe
选中所有名称的开头是“eMule”,结尾是“0.49c”的:^emule 0.49c$
选中所有名称中带有“eMule 0.49c”的(必须是“eMule 0.49c”,中间没有别的字符,不能是“eMule fake 0.49c”),需要转义:"emule 0.49c"
大小选择器帮您根据文件大小选择文件。