当前位置: 首页 >> 欧美电影 >> 最后的佣兵[简繁字幕]The.Last.Mercenary.2021.1080p.NF.WEB-DL.DDP5.1.H.264-迅雷下载 3.74GB >> 正文

最后的佣兵[简繁字幕]The.Last.Mercenary.2021.1080p.NF.WEB-DL.DDP5.1.H.264-迅雷下载 3.74GB

2021年07月31日 11:30:44     电影发布:来源于网络     电影分类:欧美电影     评论(0)    

最后的佣兵[简繁字幕]The.Last.Mercenary.2021.1080p.NF.WEB DL.DDP5.1.H.264 迅雷下载 3.74GB 动作片 喜剧片 欧美电影  第1张

◎译 名 最后的佣兵 / 末代佣兵(台)

◎片 名 The Last Mercenary

◎年 代 2021

◎产 地 美国

◎类 别 喜剧 / 动作

◎语 言 法语

◎上映日期 2021-07-30(美国)

◎IMDb链接 https://www.imdb.com/title/tt12808182/

◎豆瓣链接 https://movie.douban.com/subject/35162506/

◎导 演 David Charhon David Charhon (id:1309327)

◎编 剧 David Charhon David Charhon (id:1309327)

◎演 员 尚格·云顿 Jean-Claude Van Damme (id:1027149)

埃里克·朱多尔 Eric Judor (id:1023375)

缪缪 Miou-Miou (id:1123741)

帕特里克·坦西 Patrick Timsit (id:1012645)

范蕾丽尔·卡帕里斯基 Valérie Kaprisky (id:1022904)

纳西姆·斯艾哈迈德 Nassim Si Ahmed (id:1423016)

阿尔班·伊万诺夫 Alban Ivanov (id:1389622)

阿萨·西拉 Assa Sylla (id:1410691)

Michel Crémadès Michel Crémadès (id:1077372)

菲利普·莫里尔-热努 Philippe Morier-Genoud (id:1129730)

法萨·布亚梅 Fatsah Bouyahmed (id:1382774)

约夫·摩尔 Yov Moor (id:1404549)

◎标 签 动作 / Netflix / 尚格·云顿 / 美国 / 喜剧 / 2021 / 犯罪 / 网飞亚马逊迪士尼等

◎简 介

雇佣兵理查德·布鲁梅雷,又名“拉·米斯特”(代号“迷雾”),曾是一名神秘的法国特勤局特工。由于 25 年前他为儿子阿奇博尔德争取的豁免权被取消,他不得不重操旧业。一场犯罪活动威胁到阿奇博尔德的生命,为了拯救自己的儿子,理查德没有更好的选择,只好求助于他的旧相识,并与一群鲁莽的年轻人和一名另类的官僚合作。但对理查德来说,最重要的是鼓起勇气让阿奇博尔德知道自己是他的父亲。

  1. ##### MediaInfo ######

  2. General

  3. Unique ID : 39663109386011155932743678900176879290 (0x1DD6D645FC6E730998DCE9FF2DEEFEBA)

  4. Complete name : The.Last.Mercenary.2021.1080p.NF.WEB-DL.DDP5.1.H.264-FLUX.mkv

  5. Format : Matroska

  6. Format version : Version 4

  7. File size : 3.74 GiB

  8. Duration : 1 h 52 min

  9. Overall bit rate mode : Variable

  10. Overall bit rate : 4 764 kb/s

  11. Encoded date : UTC 2021-07-30 07:07:06

  12. Writing application : mkvmerge v59.0.0 ('Shining Star') 64-bit

  13. Writing library : libebml v1.4.2 + libmatroska v1.6.4


  14. Video

  15. ID : 1

  16. Format : AVC

  17. Format/Info : Advanced Video Codec

  18. Format profile : [email protected]

  19. Format settings : CABAC / 3 Ref Frames

  20. Format settings, CABAC : Yes

  21. Format settings, Reference frames : 3 frames

  22. Codec ID : V_MPEG4/ISO/AVC

  23. Duration : 1 h 52 min

  24. Bit rate mode : Variable

  25. Bit rate : 4 117 kb/s

  26. Nominal bit rate : 3 752 kb/s

  27. Maximum bit rate : 8 040 kb/s

  28. Width : 1 920 pixels

  29. Height : 1 080 pixels

  30. Display aspect ratio : 16:9

  31. Frame rate mode : Constant

  32. Frame rate : 24.000 FPS

  33. Color space : YUV

  34. Chroma subsampling : 4:2:0

  35. Bit depth : 8 bits

  36. Scan type : Progressive

  37. Bits/(Pixel*Frame) : 0.083

  38. Stream size : 3.23 GiB (86%)

  39. Writing library : x264 core 148 r2722 1b0121b

  40. Encoding settings : cabac=1 / ref=3 / deblock=1:0:0 / analyse=0x1:0x111 / me=umh / subme=10 / psy=1 / psy_rd=1.00:0.00 / mixed_ref=1 / me_range=24 / chroma_me=1 / trellis=2 / 8x8dct=0 / cqm=0 / deadzone=21,11 / fast_pskip=1 / chroma_qp_offset=-2 / threads=6 / lookahead_threads=1 / sliced_threads=0 / nr=0 / decimate=1 / interlaced=0 / NTMzNTQ= / bluray_compat=0 / stitchable=1 / constrained_intra=0 / bframes=2 / b_pyramid=0 / b_adapt=2 / b_bias=0 / direct=3 / weightb=1 / open_gop=0 / weightp=2 / keyint=250 / keyint_min=24 / scenecut=0 / intra_refresh=0 / rc_lookahead=48 / rc=2pass / mbtree=1 / bitrate=3752 / ratetol=1.0 / qcomp=0.50 / qpmin=6 / qpmax=51 / qpstep=4 / cplxblur=20.0 / qblur=0.5 / vbv_maxrate=8040 / vbv_bufsize=10720 / nal_hrd=vbr / filler=0 / NTMzNTQ=LmsMAP37EqsCpk / ip_ratio=1.40 / aq=1:1.00

  41. Default : Yes

  42. Forced : No


  43. Audio

  44. ID : 2

  45. Format : E-AC-3

  46. Format/Info : Enhanced AC-3

  47. Commercial name : Dolby Digital Plus

  48. Codec ID : A_EAC3

  49. Duration : 1 h 52 min

  50. Bit rate mode : Constant

  51. Bit rate : 640 kb/s

  52. Channel(s) : 6 channels

  53. Channel layout : L R C LFE Ls Rs

  54. Sampling rate : 48.0 kHz

  55. Frame rate : 31.250 FPS (1536 SPF)

  56. Compression mode : Lossy

  57. Stream size : 515 MiB (13%)

  58. Title : English

  59. Language : English

  60. Service kind : Complete Main

  61. Default : Yes

  62. Forced : No


  63. Text #1

  64. ID : 3

  65. Format : UTF-8

  66. Codec ID : S_TEXT/UTF8

  67. Codec ID/Info : UTF-8 Plain Text

  68. Duration : 1 h 49 min

  69. Bit rate : 60 b/s

  70. Count of elements : 1569

  71. Stream size : 48.1 KiB (0%)

  72. Title : English

  73. Language : English

  74. Default : Yes

  75. Forced : No


  76. Text #2

  77. ID : 4

  78. Format : UTF-8

  79. Codec ID : S_TEXT/UTF8

  80. Codec ID/Info : UTF-8 Plain Text

  81. Duration : 1 h 50 min

  82. Bit rate : 119 b/s

  83. Count of elements : 1680

  84. Stream size : 96.5 KiB (0%)

  85. Title : Arabic

  86. Language : Arabic

  87. Default : No

  88. Forced : No


  89. Text #3

  90. ID : 5

  91. Format : UTF-8

  92. Codec ID : S_TEXT/UTF8

  93. Codec ID/Info : UTF-8 Plain Text

  94. Duration : 1 h 50 min

  95. Bit rate : 65 b/s

  96. Count of elements : 1704

  97. Stream size : 53.1 KiB (0%)

  98. Title : Chinese Simplified

  99. Language : Chinese

  100. Default : No

  101. Forced : No


  102. Text #4

  103. ID : 6

  104. Format : UTF-8

  105. Codec ID : S_TEXT/UTF8

  106. Codec ID/Info : UTF-8 Plain Text

  107. Duration : 1 h 50 min

  108. Bit rate : 65 b/s

  109. Count of elements : 1741

  110. Stream size : 53.3 KiB (0%)

  111. Title : Chinese Traditional

  112. Language : Chinese

  113. Default : No

  114. Forced : No


  115. Text #5

  116. ID : 7

  117. Format : UTF-8

  118. Codec ID : S_TEXT/UTF8

  119. Codec ID/Info : UTF-8 Plain Text

  120. Duration : 1 h 50 min

  121. Bit rate : 58 b/s

  122. Count of elements : 1629

  123. Stream size : 47.1 KiB (0%)

  124. Title : Croatian

  125. Language : Croatian

  126. Default : No

  127. Forced : No


  128. Text #6

  129. ID : 8

  130. Format : UTF-8

  131. Codec ID : S_TEXT/UTF8

  132. Codec ID/Info : UTF-8 Plain Text

  133. Duration : 1 h 50 min

  134. Bit rate : 59 b/s

  135. Count of elements : 1676

  136. Stream size : 48.0 KiB (0%)

  137. Title : Czech

  138. Language : Czech

  139. Default : No

  140. Forced : No


  141. Text #7

  142. ID : 9

  143. Format : UTF-8

  144. Codec ID : S_TEXT/UTF8

  145. Codec ID/Info : UTF-8 Plain Text

  146. Duration : 1 h 50 min

  147. Bit rate : 55 b/s

  148. Count of elements : 1336

  149. Stream size : 44.9 KiB (0%)

  150. Title : Danish

  151. Language : Danish

  152. Default : No

  153. Forced : No


  154. Text #8

  155. ID : 10

  156. Format : UTF-8

  157. Codec ID : S_TEXT/UTF8

  158. Codec ID/Info : UTF-8 Plain Text

  159. Duration : 1 h 50 min

  160. Bit rate : 58 b/s

  161. Count of elements : 1603

  162. Stream size : 47.2 KiB (0%)

  163. Title : Dutch

  164. Language : Dutch

  165. Default : No

  166. Forced : No


  167. Text #9

  168. ID : 11

  169. Format : UTF-8

  170. Codec ID : S_TEXT/UTF8

  171. Codec ID/Info : UTF-8 Plain Text

  172. Duration : 1 h 50 min

  173. Bit rate : 57 b/s

  174. Count of elements : 1440

  175. Stream size : 46.8 KiB (0%)

  176. Title : Finnish

  177. Language : Finnish

  178. Default : No

  179. Forced : No


  180. Text #10

  181. ID : 12

  182. Format : UTF-8

  183. Codec ID : S_TEXT/UTF8

  184. Codec ID/Info : UTF-8 Plain Text

  185. Duration : 1 h 50 min

  186. Bit rate : 108 b/s

  187. Count of elements : 2195

  188. Stream size : 87.7 KiB (0%)

  189. Title : French

  190. Language : French

  191. Default : No

  192. Forced : No


  193. Text #11

  194. ID : 13

  195. Format : UTF-8

  196. Codec ID : S_TEXT/UTF8

  197. Codec ID/Info : UTF-8 Plain Text

  198. Duration : 1 h 50 min

  199. Bit rate : 3 b/s

  200. Count of elements : 77

  201. Stream size : 2.57 KiB (0%)

  202. Title : French (Forced)

  203. Language : French

  204. Default : No

  205. Forced : Yes


  206. Text #12

  207. ID : 14

  208. Format : UTF-8

  209. Codec ID : S_TEXT/UTF8

  210. Codec ID/Info : UTF-8 Plain Text

  211. Duration : 1 h 50 min

  212. Bit rate : 62 b/s

  213. Count of elements : 1657

  214. Stream size : 50.9 KiB (0%)

  215. Title : German

  216. Language : German

  217. Default : No

  218. Forced : No


  219. Text #13

  220. ID : 15

  221. Format : UTF-8

  222. Codec ID : S_TEXT/UTF8

  223. Codec ID/Info : UTF-8 Plain Text

  224. Duration : 1 h 50 min

  225. Bit rate : 96 b/s

  226. Count of elements : 1687

  227. Stream size : 77.9 KiB (0%)

  228. Title : Greek

  229. Language : Greek

  230. Default : No

  231. Forced : No


  232. Text #14

  233. ID : 16

  234. Format : UTF-8

  235. Codec ID : S_TEXT/UTF8

  236. Codec ID/Info : UTF-8 Plain Text

  237. Duration : 1 h 50 min

  238. Bit rate : 95 b/s

  239. Count of elements : 1690

  240. Stream size : 77.2 KiB (0%)

  241. Title : Hebrew

  242. Language : Hebrew

  243. Default : No

  244. Forced : No


  245. Text #15

  246. ID : 17

  247. Format : UTF-8

  248. Codec ID : S_TEXT/UTF8

  249. Codec ID/Info : UTF-8 Plain Text

  250. Duration : 1 h 50 min

  251. Bit rate : 60 b/s

  252. Count of elements : 1682

  253. Stream size : 49.3 KiB (0%)

  254. Title : Hungarian

  255. Language : Hungarian

  256. Default : No

  257. Forced : No


  258. Text #16

  259. ID : 18

  260. Format : UTF-8

  261. Codec ID : S_TEXT/UTF8

  262. Codec ID/Info : UTF-8 Plain Text

  263. Duration : 1 h 50 min

  264. Bit rate : 60 b/s

  265. Count of elements : 1678

  266. Stream size : 48.9 KiB (0%)

  267. Title : Indonesian

  268. Language : Indonesian

  269. Default : No

  270. Forced : No


  271. Text #17

  272. ID : 19

  273. Format : UTF-8

  274. Codec ID : S_TEXT/UTF8

  275. Codec ID/Info : UTF-8 Plain Text

  276. Duration : 2 s 333 ms

  277. Bit rate : 54 b/s

  278. Count of elements : 1

  279. Stream size : 16.0 Bytes (0%)

  280. Title : Italian

  281. Language : Italian

  282. Default : No

  283. Forced : No


  284. Text #18

  285. ID : 20

  286. Format : UTF-8

  287. Codec ID : S_TEXT/UTF8

  288. Codec ID/Info : UTF-8 Plain Text

  289. Duration : 1 h 50 min

  290. Bit rate : 60 b/s

  291. Count of elements : 1921

  292. Stream size : 49.0 KiB (0%)

  293. Title : Japanese

  294. Language : Japanese

  295. Default : No

  296. Forced : No


  297. Text #19

  298. ID : 21

  299. Format : UTF-8

  300. Codec ID : S_TEXT/UTF8

  301. Codec ID/Info : UTF-8 Plain Text

  302. Duration : 1 h 50 min

  303. Bit rate : 78 b/s

  304. Count of elements : 1778

  305. Stream size : 63.1 KiB (0%)

  306. Title : Korean

  307. Language : Korean

  308. Default : No

  309. Forced : No


  310. Text #20

  311. ID : 22

  312. Format : UTF-8

  313. Codec ID : S_TEXT/UTF8

  314. Codec ID/Info : UTF-8 Plain Text

  315. Duration : 1 h 50 min

  316. Bit rate : 58 b/s

  317. Count of elements : 1633

  318. Stream size : 47.1 KiB (0%)

  319. Title : Malay

  320. Language : Malay

  321. Default : No

  322. Forced : No


  323. Text #21

  324. ID : 23

  325. Format : UTF-8

  326. Codec ID : S_TEXT/UTF8

  327. Codec ID/Info : UTF-8 Plain Text

  328. Duration : 1 h 50 min

  329. Bit rate : 53 b/s

  330. Count of elements : 1253

  331. Stream size : 43.4 KiB (0%)

  332. Title : Norwegian Bokmal

  333. Language : Norwegian Bokmal

  334. Default : No

  335. Forced : No


  336. Text #22

  337. ID : 24

  338. Format : UTF-8

  339. Codec ID : S_TEXT/UTF8

  340. Codec ID/Info : UTF-8 Plain Text

  341. Duration : 1 h 50 min

  342. Bit rate : 58 b/s

  343. Count of elements : 1674

  344. Stream size : 47.4 KiB (0%)

  345. Title : Polish

  346. Language : Polish

  347. Default : No

  348. Forced : No


  349. Text #23

  350. ID : 25

  351. Format : UTF-8

  352. Codec ID : S_TEXT/UTF8

  353. Codec ID/Info : UTF-8 Plain Text

  354. Duration : 1 h 50 min

  355. Bit rate : 63 b/s

  356. Count of elements : 1819

  357. Stream size : 51.7 KiB (0%)

  358. Title : Portuguese

  359. Language : Portuguese

  360. Default : No

  361. Forced : No


  362. Text #24

  363. ID : 26

  364. Format : UTF-8

  365. Codec ID : S_TEXT/UTF8

  366. Codec ID/Info : UTF-8 Plain Text

  367. Duration : 2 s 0 ms

  368. Bit rate : 4 b/s

  369. Count of elements : 1

  370. Stream size : 1.00 Byte (0%)

  371. Title : Brazilian Portuguese

  372. Language : Portuguese

  373. Default : No

  374. Forced : No


  375. Text #25

  376. ID : 27

  377. Format : UTF-8

  378. Codec ID : S_TEXT/UTF8

  379. Codec ID/Info : UTF-8 Plain Text

  380. Duration : 1 h 50 min

  381. Bit rate : 65 b/s

  382. Count of elements : 1675

  383. Stream size : 52.9 KiB (0%)

  384. Title : Romanian

  385. Language : Romanian

  386. Default : No

  387. Forced : No


  388. Text #26

  389. ID : 28

  390. Format : UTF-8

  391. Codec ID : S_TEXT/UTF8

  392. Codec ID/Info : UTF-8 Plain Text

  393. Duration : 1 h 50 min

  394. Bit rate : 96 b/s

  395. Count of elements : 1679

  396. Stream size : 78.4 KiB (0%)

  397. Title : Russian

  398. Language : Russian

  399. Default : No

  400. Forced : No


  401. Text #27

  402. ID : 29

  403. Format : UTF-8

  404. Codec ID : S_TEXT/UTF8

  405. Codec ID/Info : UTF-8 Plain Text

  406. Duration : 1 h 50 min

  407. Bit rate : 61 b/s

  408. Count of elements : 1753

  409. Stream size : 49.6 KiB (0%)

  410. Title : Spanish

  411. Language : Spanish

  412. Default : No

  413. Forced : No


  414. Text #28

  415. ID : 30

  416. Format : UTF-8

  417. Codec ID : S_TEXT/UTF8

  418. Codec ID/Info : UTF-8 Plain Text

  419. Duration : 1 h 50 min

  420. Bit rate : 59 b/s

  421. Count of elements : 1690

  422. Stream size : 48.4 KiB (0%)

  423. Title : European Spanish

  424. Language : Spanish

  425. Default : No

  426. Forced : No


  427. Text #29

  428. ID : 31

  429. Format : UTF-8

  430. Codec ID : S_TEXT/UTF8

  431. Codec ID/Info : UTF-8 Plain Text

  432. Duration : 1 h 50 min

  433. Bit rate : 57 b/s

  434. Count of elements : 1598

  435. Stream size : 46.4 KiB (0%)

  436. Title : Swedish

  437. Language : Swedish

  438. Default : No

  439. Forced : No


  440. Text #30

  441. ID : 32

  442. Format : UTF-8

  443. Codec ID : S_TEXT/UTF8

  444. Codec ID/Info : UTF-8 Plain Text

  445. Duration : 1 h 50 min

  446. Bit rate : 160 b/s

  447. Count of elements : 1698

  448. Stream size : 130 KiB (0%)

  449. Title : Thai

  450. Language : Thai

  451. Default : No

  452. Forced : No


  453. Text #31

  454. ID : 33

  455. Format : UTF-8

  456. Codec ID : S_TEXT/UTF8

  457. Codec ID/Info : UTF-8 Plain Text

  458. Duration : 1 h 50 min

  459. Bit rate : 59 b/s

  460. Count of elements : 1639

  461. Stream size : 48.4 KiB (0%)

  462. Title : Turkish

  463. Language : Turkish

  464. Default : No

  465. Forced : No


  466. Text #32

  467. ID : 34

  468. Format : UTF-8

  469. Codec ID : S_TEXT/UTF8

  470. Codec ID/Info : UTF-8 Plain Text

  471. Duration : 1 h 50 min

  472. Bit rate : 88 b/s

  473. Count of elements : 1677

  474. Stream size : 71.8 KiB (0%)

  475. Title : Ukrainian

  476. Language : Ukrainian

  477. Default : No

  478. Forced : No


  479. Text #33

  480. ID : 35

  481. Format : UTF-8

  482. Codec ID : S_TEXT/UTF8

  483. Codec ID/Info : UTF-8 Plain Text

  484. Duration : 1 h 50 min

  485. Bit rate : 80 b/s

  486. Count of elements : 1564

  487. Stream size : 65.5 KiB (0%)

  488. Title : Vietnamese

  489. Language : Vietnamese

  490. Default : No

  491. Forced : No



文件下载


除非特别注明,本文『最后的佣兵[简繁字幕]The.Last.Mercenary.2021.1080p.NF.WEB-DL.DDP5.1.H.264-迅雷下载 3.74GB』来源于互联网机器人自动抓取,非本站原创。 浮游电影网不对本文拥有版权,如有侵犯,请联系邮箱:fuyouu#yandex.com[#换成@]投诉。我们会在15个工作日内删除。 但烦请转载时请标明出处:“本文转载于『浮游电影网』,原文地址:https://www.fuyouu.com/13296.html

评论吧骚年!

发表你的见解   

昵称*

E-mail*(建议输入,以便收到博主回复的提示邮件)

验证码*

您可以使用eMule或eMule Mod(Windows)、aMule(Win、Linux、Mac)等软件下载eD2k链接。。
eMule收藏集(.emulecollection)文件是您选中的所有链接的列表文件。eMule可以直接下载它们。
按住SHIFT键选择可以选中多个选择框。
可用文件名和大小选择器来选择文件。
文件名选择器帮您根据文件名称或后缀来选择文件。不分大小写。
符号使用:
和:空格( )、+
不包含:-
或:|
转义:一对英文引号("");
匹配开头:^
匹配结尾:$
例如:
选中所有名称中包含有“eMule”或“0.49c”字眼,但不包含有“exe”字眼的:emule|0.49c -exe
选中所有名称的开头是“eMule”,结尾是“0.49c”的:^emule 0.49c$
选中所有名称中带有“eMule 0.49c”的(必须是“eMule 0.49c”,中间没有别的字符,不能是“eMule fake 0.49c”),需要转义:"emule 0.49c"
大小选择器帮您根据文件大小选择文件。