当前位置: 首页 >> 欧美电影 >> 黑白魔女库伊拉[国英双语/中英双字].Cruella.de.Vil.2021.1080p.WEB-DL.H264.AAC.2Audio-迅雷下载 25.49GB >> 正文

黑白魔女库伊拉[国英双语/中英双字].Cruella.de.Vil.2021.1080p.WEB-DL.H264.AAC.2Audio-迅雷下载 25.49GB

2021年07月30日 18:07:39     电影发布:来源于网络     电影分类:欧美电影     评论(0)    

黑白魔女库伊拉[国英双语/中英双字].Cruella.de.Vil.2021.1080p.WEB DL.H264.AAC.2Audio 迅雷下载 25.49GB 犯罪片 喜剧片 欧美电影  第1张

◎译 名 黑白魔女库伊拉 / 库伊拉 / 黑白魔后(港) / 时尚恶女:库伊拉(台) / 黑白魔女 / 《101忠狗》真人前传 / 库伊拉·德维尔 / Cruella de Vil

◎片 名 Cruella

◎年 代 2021

◎产 地 美国

◎类 别 喜剧 / 犯罪

◎语 言 英语

◎上映日期 2021-06-06(中国大陆) / 2021-05-28(美国/美国网络)

◎IMDb链接 https://www.imdb.com/title/tt3228774/

◎豆瓣评分 7.0/10 (109534人评价)

◎豆瓣链接 https://movie.douban.com/subject/26703121/

◎片 长 134分钟

◎导 演 克雷格·吉勒斯佩 Craig Gillespie (id:1284873)

◎编 剧 达纳·福克斯 Dana Fox (id:1354750)

托尼·麦克纳马拉 Tony McNamara (id:1303592)

艾莲·布洛什·麦肯纳 Aline Brosh McKenna (id:1022993)

凯莉·马塞尔 Kelly Marcel (id:1115889)

史蒂夫·齐西斯 Steve Zissis (id:1171259)

道迪·史密斯 Dodie Smith (id:1045683)

杰斯·巴特沃斯 Jez Butterworth (id:1340066)

◎演 员 艾玛·斯通 Emma Stone (id:1040506)

艾玛·汤普森 Emma Thompson (id:1054514)

乔尔·弗莱 Joel Fry (id:1352741)

保罗·沃尔特·豪泽 Paul Walter Hauser (id:1268250)

约翰·麦克雷 John McCrea (id:1434703)

艾米丽·比查姆 Emily Beecham (id:1316324)

马克·斯特朗 Mark Strong (id:1274374)

凯万·诺瓦克 Kayvan Novak (id:1193055)

柯尔比·豪威尔-巴普蒂斯特 Kirby Howell-Baptiste (id:1368155)

詹米·德米特鲁 Jamie Demetriou (id:1373219)

尼亚姆·林奇 Niamh Lynch (id:1436662)

安德鲁·梁 Andrew Leung (id:1327168)

艾德·伯奇 Ed Birch (id:1337343)

迪伦·洛 Dylan Lowe (id:1457671)

保罗·巴泽利 Paul Bazely (id:1387267)

亚伯拉罕·波波拉 Abraham Popoola (id:1457672)

里奥·比尔 Leo Bill (id:1189147)

妮妮特·芬奇 Ninette Finch (id:1440766)

莎拉·克劳登 Sarah Crowden (id:1433016)

阿斯玛拉·加布里埃 Asmara Gabrielle (id:1457673)

汤姆·特纳 Tom Turner (id:1454190)

托马斯·派登 Thomas Padden (id:1362808)

克里斯·雷曼 Chris Ryman (id:1192122)

安部春香 Haruka Abe (id:1253645)

珍妮特·亨弗瑞 Janet Henfrey (id:1342885)

杰奎琳·陈 Jacqueline Chan (id:1359606)

赫梅尔妮·加利福德 Hermione Gulliford (id:1346356)

彼得·辛格 Peter Singh (id:1374100)

保罗·乔杜里 Paul Chowdhry (id:1069297)

蒂姆·斯蒂德 Tim Steed (id:1434132)

乔舒亚·希尔 Joshua Hill (id:1345824)

简·豪 Jane How (id:1101603)

杰拉丁·菲茨杰拉德 Geraldine Fitzgerald (id:1036686)

蒂珀·塞弗特·克利夫兰 Tipper Seifert-Cleveland (id:1395478)

吉安尼·卡尔切蒂 Gianni Calchetti (id:1445091)

贝恩·科拉科 Bern Colla?o (id:1394212)

妮科尔·亨布拉 Nicholle Hembra (id:1434456)

阿图尔·夏尔马 Atul Sharma (id:1397360)

艾薇·维 Evie Wray (id:1333557)

马汀·麦格 Martyn Mayger (id:1368245)

约翰·艾伦·罗伯茨 John Alan Roberts (id:1442711)

杰奎琳·拉姆娜莱恩 Jacqueline Ramnarine (id:1395000)

贾格·帕特尔 Jag Patel (id:1392994)

尼克·欧文福特 Nick Owenford (id:1362807)

伊斯雷尔·鲁兹 Israel Ruiz (id:1199375)

贾文?普林斯 Javone Prince (id:1394556)

史蒂夫·埃奇 Steve Edge (id:1200917)

布鲁贝尔 Bluebell (id:1457722)

吉斯摩 Gizmo (id:1457717)

库珀 Cooper (id:1457716)

波比 Bobby (id:1457714)

阿尔菲 Alfie (id:1457712)

昆西 Quince (id:1457757)

安德鲁·甘恩 Andrew Gunn (id:1095734)

马克·普拉特 Marc Platt (id:1294606)

艾玛·斯通 Emma Stone (id:1040506)

米歇尔·赖特 Michelle Wright (id:1203769)

格伦·克洛斯 Glenn Close (id:1031875)

尼古拉斯·卡拉卡萨尼斯 Nicolas Karakatsanis (id:1423432)

达伦·塔比 Darren Tubby (id:1423433)

珍妮·碧万 Jenny Beavan (id:1278169)

露西·贝文 Lucy Bevan (id:1423431)

◎标 签 迪士尼 / 时尚 / 美国 / 奇幻 / 喜剧 / 2021 / 犯罪 / 电影

◎简 介

影片改编自道迪·史密斯的小说,故事设定在20世纪70年代朋克摇滚革命时期的伦敦,讲述了一个名叫艾丝黛拉(艾玛·斯通 饰)的年轻骗子的故事。艾丝黛拉是一个聪明又有创意的女孩,她决心用自己的设计让自己出名。她和一对欣赏她的恶作剧嗜好的小偷交上了朋友,并能够一起在伦敦的街道上建立自己的生活。有一天,艾丝黛拉的时尚品味吸引了冯·赫尔曼男爵夫人(艾玛·汤普森 饰)的眼球,她是一位时尚界的传奇人物,拥有毁灭性的时尚和可怕的高雅,但他们的关系引发了一系列事件,导致艾丝黛拉去拥抱她的邪恶一面,成为了兼具疯狂、时尚和报复心的库伊拉。

  1. ##### MediaInfo ######

  2. General

  3. Unique ID : 298092712421229815749507274345992567227 (0xE042916F5DCA6682A12AC059888239BB)

  4. Complete name : 黑白魔女库伊拉[email protected]OM.mkv

  5. Format : Matroska

  6. Format version : Version 4

  7. File size : 25.5 GiB

  8. Duration : 2 h 9 min

  9. Overall bit rate : 28.2 Mb/s

  10. Encoded date : UTC 2021-07-29 08:50:02

  11. Writing application : mkvmerge v51.0.0 ('I Wish') 64-bit

  12. Writing library : libebml v1.4.0 + libmatroska v1.6.2


  13. Video

  14. ID : 1

  15. Format : AVC

  16. Format/Info : Advanced Video Codec

  17. Format profile : [email protected]

  18. Format settings : CABAC / 4 Ref Frames

  19. Format settings, CABAC : Yes

  20. Format settings, Reference frames : 4 frames

  21. Format settings, GOP : M=4, N=25

  22. Codec ID : V_MPEG4/ISO/AVC

  23. Duration : 2 h 9 min

  24. Bit rate : 27.6 Mb/s

  25. Width : 1 920 pixels

  26. Height : 1 040 pixels

  27. Display aspect ratio : 1.85:1

  28. Frame rate mode : Constant

  29. Frame rate : 25.000 FPS

  30. Color space : YUV

  31. Chroma subsampling : 4:2:0

  32. Bit depth : 8 bits

  33. Scan type : Progressive

  34. Bits/(Pixel*Frame) : 0.552

  35. Stream size : 24.9 GiB (98%)

  36. Language : English

  37. Default : Yes

  38. Forced : No

  39. Color range : Limited

  40. Color primaries : BT.709

  41. Transfer characteristics : BT.709

  42. Matrix coefficients : BT.709


  43. Audio #1

  44. ID : 2

  45. Format : AAC LC

  46. Format/Info : Advanced Audio Codec Low Complexity

  47. Codec ID : A_AAC-2

  48. Duration : 2 h 9 min

  49. Bit rate : 317 kb/s

  50. Channel(s) : 2 channels

  51. Channel layout : L R

  52. Sampling rate : 48.0 kHz

  53. Frame rate : 46.875 FPS (1024 SPF)

  54. Compression mode : Lossy

  55. Stream size : 294 MiB (1%)

  56. Title : English

  57. Language : English

  58. Default : Yes

  59. Forced : No


  60. Audio #2

  61. ID : 3

  62. Format : AAC LC

  63. Format/Info : Advanced Audio Codec Low Complexity

  64. Codec ID : A_AAC-2

  65. Duration : 2 h 9 min

  66. Bit rate : 317 kb/s

  67. Channel(s) : 2 channels

  68. Channel layout : L R

  69. Sampling rate : 48.0 kHz

  70. Frame rate : 46.875 FPS (1024 SPF)

  71. Compression mode : Lossy

  72. Stream size : 294 MiB (1%)

  73. Title : Mandarin

  74. Language : Chinese

  75. Default : No

  76. Forced : No


文件下载


除非特别注明,本文『黑白魔女库伊拉[国英双语/中英双字].Cruella.de.Vil.2021.1080p.WEB-DL.H264.AAC.2Audio-迅雷下载 25.49GB』来源于互联网机器人自动抓取,非本站原创。 浮游电影网不对本文拥有版权,如有侵犯,请联系邮箱:fuyouu#yandex.com[#换成@]投诉。我们会在15个工作日内删除。 但烦请转载时请标明出处:“本文转载于『浮游电影网』,原文地址:https://www.fuyouu.com/13295.html

评论吧骚年!

发表你的见解   

昵称*

E-mail*(建议输入,以便收到博主回复的提示邮件)

验证码*

您可以使用eMule或eMule Mod(Windows)、aMule(Win、Linux、Mac)等软件下载eD2k链接。。
eMule收藏集(.emulecollection)文件是您选中的所有链接的列表文件。eMule可以直接下载它们。
按住SHIFT键选择可以选中多个选择框。
可用文件名和大小选择器来选择文件。
文件名选择器帮您根据文件名称或后缀来选择文件。不分大小写。
符号使用:
和:空格( )、+
不包含:-
或:|
转义:一对英文引号("");
匹配开头:^
匹配结尾:$
例如:
选中所有名称中包含有“eMule”或“0.49c”字眼,但不包含有“exe”字眼的:emule|0.49c -exe
选中所有名称的开头是“eMule”,结尾是“0.49c”的:^emule 0.49c$
选中所有名称中带有“eMule 0.49c”的(必须是“eMule 0.49c”,中间没有别的字符,不能是“eMule fake 0.49c”),需要转义:"emule 0.49c"
大小选择器帮您根据文件大小选择文件。