当前位置: 首页 >> 国产电影 >> 东北老丈人[国语中字]Northeast.Father-In-Law.2021.1080p.WEB-DL.H264.AAC-迅雷下载 26.69GB >> 正文

东北老丈人[国语中字]Northeast.Father-In-Law.2021.1080p.WEB-DL.H264.AAC-迅雷下载 26.69GB

2021年07月30日 18:06:24     电影发布:来源于网络     电影分类:国产电影     评论(0)    

东北老丈人[国语中字]Northeast.Father In Law.2021.1080p.WEB DL.H264.AAC 迅雷下载 26.69GB 喜剧片 国产电影  第1张

◎译 名 东北老丈人 / Northeast father-in-law

◎年 代 2021

◎产 地 中国大陆

◎语 言 汉语普通话

◎上映日期 2021-07-29(中国大陆)

◎IMDb链接 https://www.imdb.com/title//

◎豆瓣链接 https://movie.douban.com/subject/35546584/

◎标 签 土嗨剧 / 网络大电影 / 土剧 / 喜剧 / 大陆 / 国产 / 东北村逼剧 / 2021

◎简 介

刘老四在女儿小时候给定了娃娃亲,女儿长大了却想反悔,王守田用刘老四二十年前的秘密做要挟。刘老四无奈进城,准备把女儿接回来结婚,结果一进城,他便发现女儿早已经有了男朋友小杜,而这个小杜就是进城把自己大鹅坑丢的人。刘老四一直借机想挤兑走小杜,带佳佳回去。中间却在大城市的酒吧,洗浴中心里频频闯祸。最后通过小杜一系列的表现,老四认可了小杜。就在这时,王守田知道老四有了新女婿,一怒之下带人追到城里,想要当众说出了秘密……

  1. ##### MediaInfo ######

  2. General

  3. Complete name : 东北老丈人[email protected].COM.mp4

  4. Format : MPEG-4

  5. Format profile : Base Media / Version 2

  6. Codec ID : mp42 (mp42/mp41)

  7. File size : 26.7 GiB

  8. Duration : 1 h 20 min

  9. Overall bit rate mode : Variable

  10. Overall bit rate : 47.7 Mb/s

  11. Encoded date : UTC 2021-07-22 16:11:06

  12. Tagged date : UTC 2021-07-22 17:48:23

  13. TIM : 00:00:00:00

  14. TSC : 25

  15. TSZ : 1


  16. Video

  17. ID : 1

  18. Format : AVC

  19. Format/Info : Advanced Video Codec

  20. Format profile : [email protected]

  21. Format settings : CABAC / 4 Ref Frames

  22. Format settings, CABAC : Yes

  23. Format settings, Reference frames : 4 frames

  24. Codec ID : avc1

  25. Codec ID/Info : Advanced Video Coding

  26. Duration : 1 h 20 min

  27. Bit rate : 47.4 Mb/s

  28. Width : 1 920 pixels

  29. Height : 820 pixels

  30. Display aspect ratio : 2.35:1

  31. Frame rate mode : Constant

  32. Frame rate : 25.000 FPS

  33. Color space : YUV

  34. Chroma subsampling : 4:2:0

  35. Bit depth : 8 bits

  36. Scan type : Progressive

  37. Bits/(Pixel*Frame) : 1.204

  38. Stream size : 26.5 GiB (99%)

  39. Language : English

  40. Encoded date : UTC 2021-07-22 16:11:07

  41. Tagged date : UTC 2021-07-22 16:11:07

  42. Color range : Limited

  43. Color primaries : BT.709

  44. Transfer characteristics : BT.709

  45. Matrix coefficients : BT.709

  46. Codec configuration box : avcC


  47. Audio

  48. ID : 2

  49. Format : AAC LC

  50. Format/Info : Advanced Audio Codec Low Complexity

  51. Codec ID : mp4a-40-2

  52. Duration : 1 h 20 min

  53. Source duration : 1 h 20 min

  54. Bit rate mode : Variable

  55. Bit rate : 317 kb/s

  56. Maximum bit rate : 465 kb/s

  57. Channel(s) : 2 channels

  58. Channel layout : L R

  59. Sampling rate : 48.0 kHz

  60. Frame rate : 46.875 FPS (1024 SPF)

  61. Compression mode : Lossy

  62. Stream size : 182 MiB (1%)

  63. Source stream size : 182 MiB (1%)

  64. Language : English

  65. Encoded date : UTC 2021-07-22 16:11:07

  66. Tagged date : UTC 2021-07-22 16:11:07



文件下载


除非特别注明,本文『东北老丈人[国语中字]Northeast.Father-In-Law.2021.1080p.WEB-DL.H264.AAC-迅雷下载 26.69GB』来源于互联网机器人自动抓取,非本站原创。 浮游电影网不对本文拥有版权,如有侵犯,请联系邮箱:fuyouu#yandex.com[#换成@]投诉。我们会在15个工作日内删除。 但烦请转载时请标明出处:“本文转载于『浮游电影网』,原文地址:https://www.fuyouu.com/13294.html

评论吧骚年!

发表你的见解   

昵称*

E-mail*(建议输入,以便收到博主回复的提示邮件)

验证码*

您可以使用eMule或eMule Mod(Windows)、aMule(Win、Linux、Mac)等软件下载eD2k链接。。
eMule收藏集(.emulecollection)文件是您选中的所有链接的列表文件。eMule可以直接下载它们。
按住SHIFT键选择可以选中多个选择框。
可用文件名和大小选择器来选择文件。
文件名选择器帮您根据文件名称或后缀来选择文件。不分大小写。
符号使用:
和:空格( )、+
不包含:-
或:|
转义:一对英文引号("");
匹配开头:^
匹配结尾:$
例如:
选中所有名称中包含有“eMule”或“0.49c”字眼,但不包含有“exe”字眼的:emule|0.49c -exe
选中所有名称的开头是“eMule”,结尾是“0.49c”的:^emule 0.49c$
选中所有名称中带有“eMule 0.49c”的(必须是“eMule 0.49c”,中间没有别的字符,不能是“eMule fake 0.49c”),需要转义:"emule 0.49c"
大小选择器帮您根据文件大小选择文件。