当前位置: 首页 >> 欧美电影 >> 完美的世界[中文字幕]A.Perfect.World.1993.1080p.BluRay.DTS.x265-10bit-迅雷下载 14.57GB >> 正文

完美的世界[中文字幕]A.Perfect.World.1993.1080p.BluRay.DTS.x265-10bit-迅雷下载 14.57GB

2021年07月30日 18:04:04     电影发布:来源于网络     电影分类:欧美电影     评论(0)    

完美的世界[中文字幕]A.Perfect.World.1993.1080p.BluRay.DTS.x265 10bit 迅雷下载 14.57GB 犯罪片 剧情片 欧美电影  第1张

◎译 名 完美的世界 / 强盗保镳

◎片 名 A Perfect World

◎年 代 1993

◎产 地 美国

◎类 别 剧情 / 犯罪

◎语 言 英语

◎上映日期 1993-11-24(美国)

◎IMDb链接 https://www.imdb.com/title/tt0107808/

◎豆瓣评分 9.1/10 (239170人评价)

◎豆瓣链接 https://movie.douban.com/subject/1300992/

◎片 长 138分钟

◎导 演 克林特·伊斯特伍德 Clint Eastwood (id:1054436)

◎编 剧 约翰·李·汉考克 John Lee Hancock (id:1285940)

◎演 员 凯文·科斯特纳 Kevin Costner (id:1016671)

劳拉·邓恩 Laura Dern (id:1006983)

克林特·伊斯特伍德 Clint Eastwood (id:1054436)

T·J·劳瑟 T.J. Lowther (id:1103097)

基斯·斯扎拉巴基克 Keith Szarabajka (id:1160597)

马可·佩雷拉 Marco Perella (id:1341873)

Elizabeth Ruscio Elizabeth Ruscio (id:1138314)

布兰顿·史密斯 Brandon Smith (id:1158562)

Woody Watson Woody Watson (id:1168139)

凯文·贾马尔·伍德斯 Kevin Jamal Woods (id:1301247)

布莱德利·惠特福德 Bradley Whitford (id:1027158)

雷·迈克金农 Ray McKinnon (id:1041216)

James W. Gavin James W. Gavin (id:1033037)

吉米·雷·皮肯斯 Jimmy Ray Pickens (id:1133195)

Gary Moody Gary Moody (id:1129299)

加布里埃尔·福尔斯 Gabriel Folse (id:1082176)

里奥·伯梅斯特 Leo Burmester (id:1073861)

达里尔·考克斯 Darryl Cox (id:1068706)

Greg Stechman Greg Stechman (id:1001297)

玛丽·爱丽丝 Mary Alice (id:1036882)

布鲁斯·麦克吉尔 Bruce McGill (id:1010626)

Tony Frank Tony Frank (id:1082771)

Cameron Finley Cameron Finley (id:1085430)

乔治·奧瑞森 George Orrison (id:1128352)

丹尼斯莱茨 Dennis Letts (id:1116349)

Lucy Lee Flippin Lucy Lee Flippin (id:1085932)

约翰·M·杰克逊 John M. Jackson (id:1106593)

James Jeter James Jeter (id:1102672)

Craig Hosking Craig Hosking (id:1100422)

Ed Geldart Ed Geldart (id:1097178)

克林特·伊斯特伍德 Clint Eastwood (id:1054436)

大卫·瓦尔德 David Valdes (id:1299783)

马克·约翰逊 Mark Johnson (id:1276128)

莱尼·涅霍斯 Lennie Niehaus (id:1018772)

杰克·N·格林 Jack N. Green (id:1041740)

乔尔·考克斯 Joel Cox (id:1281415)

Phyllis Huffman Phyllis Huffman (id:1112681)

亨利·巴姆斯泰德 Henry Bumstead (id:1033020)

Jack G. Taylor Jr. Jack G. Taylor Jr. (id:1298967)

Erica Edell Phillips Erica Edell Phillips (id:1294458)

Elle Elliott Elle Elliott (id:1283118)

Francisco X. Pérez Francisco X. Pérez (id:1280155)

James Lee McCoy James Lee McCoy (id:1291498)

卡罗尔·A·奥康奈尔 Carol A. O'Connell (id:1293382)

Fríea Aradóttir Fríea Aradóttir (id:1057946)

比尔·巴纳文 Bill Bannerman (id:1276405)

◎标 签 人性 / 美国 / 温情 / 犯罪 / 经典 / 成长 / 剧情 / 感人

◎简 介

单亲孩子菲利普·佩里(T·J·劳瑟 T.J. Lowther 饰)的母亲对他管教甚严,8岁的小菲利普甚至从未参加过一次鬼节讨糖果的游戏。附近州监狱的两名罪犯越狱成功,劫持了菲利普作为人质,向德州边界逃窜。途中,罪犯之一的布奇(凯文·科斯特纳 Kevin Costner 饰)干掉了鲁莽愚蠢的同伙,却对小菲利普照顾有加。与此同时,德州警探瑞德(克林特·伊斯特伍德 Clint Eastwood 饰)带着手下和州长特派的犯罪专家萨利(劳拉·邓恩 Laura Dern 饰)一同火速追捕布奇。双方在德克萨斯州境内展开了一场公路赛大竞技;而小菲利普也经历了很多从未想过过的刺激与快乐,并与布奇产生了一种近似父子的不寻常感情……

  1. ##### MediaInfo ######

  2. General

  3. Unique ID : 272357783455590991361469242882557841634 (0xCCE633799CBC9F6E17ED478F5FA190E2)

  4. Complete name : [email protected]M.mkv

  5. Format : Matroska

  6. Format version : Version 4

  7. File size : 14.6 GiB

  8. Duration : 2 h 18 min

  9. Overall bit rate : 15.1 Mb/s

  10. Movie name : A Perfect World 1993 1080p BluRay DTS [email protected]

  11. Encoded date : UTC 2021-07-28 03:18:41

  12. Writing application : mkvmerge v38.0.0 ('The Silent Type') 64-bit

  13. Writing library : libebml v1.3.9 + libmatroska v1.5.2


  14. Video

  15. ID : 1

  16. Format : HEVC

  17. Format/Info : High Efficiency Video Coding

  18. Format profile : Main [email protected]@High

  19. Codec ID : V_MPEGH/ISO/HEVC

  20. Duration : 2 h 18 min

  21. Bit rate : 13.5 Mb/s

  22. Width : 1 920 pixels

  23. Height : 800 pixels

  24. Display aspect ratio : 2.40:1

  25. Frame rate mode : Constant

  26. Frame rate : 23.976 (24000/1001/53354) FPS

  27. Color space : YUV

  28. Chroma subsampling : 4:2:0

  29. Bit depth : 10 bits

  30. Bits/(Pixel*Frame) : 0.368

  31. Stream size : 13.1 GiB (90%)

  32. Title : [email protected]

  33. Writing library : x265 - H.265/HEVC codec

  34. Default : Yes

  35. Forced : No


  36. Audio

  37. ID : 2

  38. Format : DTS

  39. Format/Info : Digital Theater Systems

  40. Codec ID : A_DTS

  41. Duration : 2 h 18 min

  42. Bit rate mode : Constant

  43. Bit rate : 1 509 kb/s

  44. Channel(s) : 6 channels

  45. Channel layout : C L R Ls Rs LFE

  46. Sampling rate : 48.0 kHz

  47. Frame rate : 93.750 FPS (512 SPF)

  48. Bit depth : 24 bits

  49. Compression mode : Lossy

  50. Stream size : 1.46 GiB (10%)

  51. Title : English

  52. Language : English

  53. Default : Yes

  54. Forced : No


  55. Text #1

  56. ID : 3

  57. Format : PGS

  58. Muxing mode : zlib

  59. Codec ID : S_HDMV/PGS

  60. Codec ID/Info : Picture based subtitle format used on BDs/HD-DVDs

  61. Duration : 2 h 13 min

  62. Bit rate : 24.0 kb/s

  63. Count of elements : 2628

  64. Stream size : 22.8 MiB (0%)

  65. Title : CHS

  66. Language : Chinese

  67. Default : Yes

  68. Forced : No


  69. Text #2

  70. ID : 4

  71. Format : PGS

  72. Muxing mode : zlib

  73. Codec ID : S_HDMV/PGS

  74. Codec ID/Info : Picture based subtitle format used on BDs/HD-DVDs

  75. Duration : 2 h 13 min

  76. Bit rate : 24.5 kb/s

  77. Count of elements : 2628

  78. Stream size : 23.3 MiB (0%)

  79. Title : CHT

  80. Language : Chinese

  81. Default : No

  82. Forced : No


  83. Menu

  84. 00:00:00.000 : en:Chapter 01

  85. 00:01:33.510 : en:Chapter 02

  86. 00:02:45.332 : en:Chapter 03

  87. 00:07:19.230 : en:Chapter 04

  88. 00:13:46.659 : en:Chapter 05

  89. 00:17:12.073 : en:Chapter 06

  90. 00:19:54.735 : en:Chapter 07

  91. 00:22:36.355 : en:Chapter 08

  92. 00:29:37.025 : en:Chapter 09

  93. 00:34:02.749 : en:Chapter 10

  94. 00:37:18.528 : en:Chapter 11

  95. 00:42:41.684 : en:Chapter 12

  96. 00:44:20.491 : en:Chapter 13

  97. 00:45:56.629 : en:Chapter 14

  98. 00:53:30.457 : en:Chapter 15

  99. 00:55:41.421 : en:Chapter 16

  100. 00:58:39.474 : en:Chapter 17

  101. 01:03:19.921 : en:Chapter 18

  102. 01:05:27.090 : en:Chapter 19

  103. 01:08:28.938 : en:Chapter 20

  104. 01:16:16.030 : en:Chapter 21

  105. 01:16:56.612 : en:Chapter 22

  106. 01:18:24.742 : en:Chapter 23

  107. 01:20:03.132 : en:Chapter 24

  108. 01:24:22.432 : en:Chapter 25

  109. 01:28:26.635 : en:Chapter 26

  110. 01:31:37.659 : en:Chapter 27

  111. 01:33:23.932 : en:Chapter 28

  112. 01:38:06.255 : en:Chapter 29

  113. 01:41:08.813 : en:Chapter 30

  114. 01:42:55.169 : en:Chapter 31

  115. 01:46:39.184 : en:Chapter 32

  116. 01:49:20.304 : en:Chapter 33

  117. 01:53:49.197 : en:Chapter 34

  118. 01:58:51.458 : en:Chapter 35

  119. 02:02:40.395 : en:Chapter 36

  120. 02:04:14.530 : en:Chapter 37

  121. 02:07:09.330 : en:Chapter 38

  122. 02:08:02.633 : en:Chapter 39

  123. 02:10:46.338 : en:Chapter 40

  124. 02:11:18.204 : en:Chapter 41

  125. 02:13:01.640 : en:Chapter 42



文件下载


除非特别注明,本文『完美的世界[中文字幕]A.Perfect.World.1993.1080p.BluRay.DTS.x265-10bit-迅雷下载 14.57GB』来源于互联网机器人自动抓取,非本站原创。 浮游电影网不对本文拥有版权,如有侵犯,请联系邮箱:fuyouu#yandex.com[#换成@]投诉。我们会在15个工作日内删除。 但烦请转载时请标明出处:“本文转载于『浮游电影网』,原文地址:https://www.fuyouu.com/13292.html

评论吧骚年!

发表你的见解   

昵称*

E-mail*(建议输入,以便收到博主回复的提示邮件)

验证码*

您可以使用eMule或eMule Mod(Windows)、aMule(Win、Linux、Mac)等软件下载eD2k链接。。
eMule收藏集(.emulecollection)文件是您选中的所有链接的列表文件。eMule可以直接下载它们。
按住SHIFT键选择可以选中多个选择框。
可用文件名和大小选择器来选择文件。
文件名选择器帮您根据文件名称或后缀来选择文件。不分大小写。
符号使用:
和:空格( )、+
不包含:-
或:|
转义:一对英文引号("");
匹配开头:^
匹配结尾:$
例如:
选中所有名称中包含有“eMule”或“0.49c”字眼,但不包含有“exe”字眼的:emule|0.49c -exe
选中所有名称的开头是“eMule”,结尾是“0.49c”的:^emule 0.49c$
选中所有名称中带有“eMule 0.49c”的(必须是“eMule 0.49c”,中间没有别的字符,不能是“eMule fake 0.49c”),需要转义:"emule 0.49c"
大小选择器帮您根据文件大小选择文件。