当前位置: 首页 >> 日韩电影 >> 最后一封信[中文字幕].Last.Letter.2020.1080p.BluRay.DTS.x265-10bit-迅雷下载M 8.97GB >> 正文

最后一封信[中文字幕].Last.Letter.2020.1080p.BluRay.DTS.x265-10bit-迅雷下载M 8.97GB

2021年07月30日 18:03:01     电影发布:来源于网络     电影分类:日韩电影     评论(0)    

最后一封信[中文字幕].Last.Letter.2020.1080p.BluRay.DTS.x265 10bit 迅雷下载M 8.97GB 爱情片 剧情片 日韩电影  第1张

◎译 名 最后一封信 / 你好之华日本版 / 最后的情书(港 / 台) / 最后的信 / Last Letter

◎片 名 ラストレター

◎年 代 2020

◎产 地 日本

◎类 别 剧情 / 爱情

◎语 言 日语

◎上映日期 2020-01-17(日本)

◎IMDb链接 https://www.imdb.com/title/tt8809750/

◎豆瓣评分 7.5/10 (6735人评价)

◎豆瓣链接 https://movie.douban.com/subject/30271236/

◎片 长 120分钟

◎导 演 岩井俊二 Shunji Iwai (id:1005064)

◎编 剧 岩井俊二 Shunji Iwai (id:1005064)

◎演 员 松隆子 Takako Matsu (id:1003483)

福山雅治 Masaharu Fukuyama (id:1006103)

广濑铃 Suzu Hirose (id:1328056)

神木隆之介 Ry?nosuke Kamiki (id:1185637)

庵野秀明 Hideaki Anno (id:1059748)

森七菜 Nana Mori (id:1378190)

水越惠子 Keiko Mizukoshi (id:1404680)

中山美穗 Miho Nakayama (id:1032915)

丰川悦司 Etsushi Toyokawa (id:1032989)

铃木庆一 Keiichi Suzuki (id:1052012)

矢部太郎 Tar? Yabe (id:1373067)

木内绿 Midori Kiuchi (id:1031570)

川村元气 Genki Kawamura (id:1345696)

◎标 签 日本 / 爱情 / 文艺 / 青春 / 2020 / 温情 / 回忆 / 人生

◎简 介

岸边野裕里(松隆子)在姐姐远野未笑的葬礼上,遇到了姐姐的女儿远野鮎美(广濑铃)。无法接受母亲亡故的鮎美,也无法打开母亲留下的最后一封信。裕里参加了要和大家报告姐姐往生的同学会,巧的是,她的初恋对象镜史郎(福山雅治)也来了,两人在一封封书信的联系中串接起三人当年的故事。

◎获奖情况 (共2项)

第44届日本电影学院奖 (2021)

最佳新人(提名)

└──森七菜 (id:1378190)

第7届豆瓣电影年度榜单 (2020)

评分最高的日本电影(提名)

  1. ##### MediaInfo ######

  2. General

  3. Unique ID : 268828754525402377786584609067792545216 (0xCA3E88EA4F3DD9760C554DED6EE735C0)

  4. Complete name : [email protected]v

  5. Format : Matroska

  6. Format version : Version 4

  7. File size : 8.97 GiB

  8. Duration : 2 h 0 min

  9. Overall bit rate : 10.7 Mb/s

  10. Movie name : Last Letter 2020 1080p BluRay DTS [email protected]

  11. Encoded date : UTC 2021-07-27 00:26:48

  12. Writing application : mkvmerge v38.0.0 ('The Silent Type') 64-bit

  13. Writing library : libebml v1.3.9 + libmatroska v1.5.2


  14. Video

  15. ID : 1

  16. Format : HEVC

  17. Format/Info : High Efficiency Video Coding

  18. Format profile : Main [email protected]@High

  19. Codec ID : V_MPEGH/ISO/HEVC

  20. Duration : 2 h 0 min

  21. Bit rate : 9 115 kb/s

  22. Width : 1 920 pixels

  23. Height : 1 080 pixels

  24. Display aspect ratio : 16:9

  25. Frame rate mode : Constant

  26. Frame rate : 23.976 (24000/1001/53354) FPS

  27. Color space : YUV

  28. Chroma subsampling : 4:2:0

  29. Bit depth : 10 bits

  30. Bits/(Pixel*Frame) : 0.183

  31. Stream size : 7.67 GiB (86%)

  32. Title : [email protected]

  33. Writing library : x265 - H.265/HEVC codec

  34. Default : Yes

  35. Forced : No


  36. Audio

  37. ID : 2

  38. Format : DTS

  39. Format/Info : Digital Theater Systems

  40. Codec ID : A_DTS

  41. Duration : 2 h 0 min

  42. Bit rate mode : Constant

  43. Bit rate : 1 509 kb/s

  44. Channel(s) : 6 channels

  45. Channel layout : C L R Ls Rs LFE

  46. Sampling rate : 48.0 kHz

  47. Frame rate : 93.750 FPS (512 SPF)

  48. Bit depth : 24 bits

  49. Compression mode : Lossy

  50. Stream size : 1.27 GiB (14%)

  51. Title : Japanese

  52. Language : Japanese

  53. Default : Yes

  54. Forced : No


  55. Text #1

  56. ID : 3

  57. Format : PGS

  58. Muxing mode : zlib

  59. Codec ID : S_HDMV/PGS

  60. Codec ID/Info : Picture based subtitle format used on BDs/HD-DVDs

  61. Duration : 1 h 56 min

  62. Bit rate : 25.9 kb/s

  63. Count of elements : 2804

  64. Stream size : 21.6 MiB (0%)

  65. Title : CHS

  66. Language : Chinese

  67. Default : Yes

  68. Forced : No


  69. Text #2

  70. ID : 4

  71. Format : PGS

  72. Muxing mode : zlib

  73. Codec ID : S_HDMV/PGS

  74. Codec ID/Info : Picture based subtitle format used on BDs/HD-DVDs

  75. Duration : 1 h 56 min

  76. Bit rate : 26.5 kb/s

  77. Count of elements : 2804

  78. Stream size : 22.0 MiB (0%)

  79. Title : CHT

  80. Language : Chinese

  81. Default : No

  82. Forced : No


  83. Menu

  84. 00:00:00.000 : en:Chapter 01

  85. 00:10:51.359 : en:Chapter 02

  86. 00:22:57.585 : en:Chapter 03

  87. 00:31:49.908 : en:Chapter 04

  88. 00:36:57.674 : en:Chapter 05

  89. 00:39:41.296 : en:Chapter 06

  90. 00:41:15.640 : en:Chapter 07

  91. 00:42:36.929 : en:Chapter 08

  92. 00:48:21.816 : en:Chapter 09

  93. 00:52:12.880 : en:Chapter 10

  94. 00:55:33.372 : en:Chapter 11

  95. 01:08:09.419 : en:Chapter 12

  96. 01:13:16.559 : en:Chapter 13

  97. 01:27:09.766 : en:Chapter 14

  98. 01:47:37.451 : en:Chapter 15

  99. 01:52:13.894 : en:Chapter 16



文件下载


除非特别注明,本文『最后一封信[中文字幕].Last.Letter.2020.1080p.BluRay.DTS.x265-10bit-迅雷下载M 8.97GB』来源于互联网机器人自动抓取,非本站原创。 浮游电影网不对本文拥有版权,如有侵犯,请联系邮箱:fuyouu#yandex.com[#换成@]投诉。我们会在15个工作日内删除。 但烦请转载时请标明出处:“本文转载于『浮游电影网』,原文地址:https://www.fuyouu.com/13291.html

评论吧骚年!

发表你的见解   

昵称*

E-mail*(建议输入,以便收到博主回复的提示邮件)

验证码*

您可以使用eMule或eMule Mod(Windows)、aMule(Win、Linux、Mac)等软件下载eD2k链接。。
eMule收藏集(.emulecollection)文件是您选中的所有链接的列表文件。eMule可以直接下载它们。
按住SHIFT键选择可以选中多个选择框。
可用文件名和大小选择器来选择文件。
文件名选择器帮您根据文件名称或后缀来选择文件。不分大小写。
符号使用:
和:空格( )、+
不包含:-
或:|
转义:一对英文引号("");
匹配开头:^
匹配结尾:$
例如:
选中所有名称中包含有“eMule”或“0.49c”字眼,但不包含有“exe”字眼的:emule|0.49c -exe
选中所有名称的开头是“eMule”,结尾是“0.49c”的:^emule 0.49c$
选中所有名称中带有“eMule 0.49c”的(必须是“eMule 0.49c”,中间没有别的字符,不能是“eMule fake 0.49c”),需要转义:"emule 0.49c"
大小选择器帮您根据文件大小选择文件。