当前位置: 首页 >> 港台电影 >> 辣手神探[国粤语音轨/中文字幕]Hard.Boiled.1992.1080p.BluRay.x264.DTS.2Audio-迅雷下载 12.64GB >> 正文

辣手神探[国粤语音轨/中文字幕]Hard.Boiled.1992.1080p.BluRay.x264.DTS.2Audio-迅雷下载 12.64GB

2021年07月30日 18:00:29     电影发布:来源于网络     电影分类:港台电影     评论(0)    

辣手神探[国粤语音轨/中文字幕]Hard.Boiled.1992.1080p.BluRay.x264.DTS.2Audio 迅雷下载 12.64GB 犯罪片 惊悚片 动作片 剧情片 港台电影  第1张

◎译 名 辣手神探 / 枪神(台) / Hard-Boiled

◎年 代 1992

◎产 地 中国香港

◎类 别 剧情 / 动作 / 惊悚 / 犯罪

◎语 言 粤语

◎上映日期 1992-04-16

◎IMDb链接 https://www.imdb.com/title/tt0104684/

◎豆瓣评分 7.9/10 (33123人评价)

◎豆瓣链接 https://movie.douban.com/subject/1293147/

◎片 长 128 分钟

◎导 演 吴宇森 John Woo (id:1027853)

◎编 剧 黄炳耀 Barry Wong (id:1014964)

◎演 员 周润发 Yun-Fat Chow (id:1044899)

梁朝伟 Tony Leung Chiu Wai (id:1115918)

毛舜筠 Teresa Mo (id:1274338)

陈欣健 Philip Chan (id:1007245)

黄秋生 Anthony Wong Chau-Sang (id:1050076)

郭追 Philip Kwok (id:1028425)

关海山 Hoi-Shan Kwan (id:1289167)

林保怡 Bowie Lam (id:1274606)

欧阳震华 Bobbie Au-Yeung (id:1060917)

国村隼 Jun Kunimura (id:1041791)

伍国健 Kwok-kin Ng (id:1418713)

丁家强 Michael Dingo (id:1415763)

杨德毅 Jacky Yeung (id:1164248)

刘江 Kong Lau (id:1274572)

岑潜波 Chien-Po Tsen (id:1373123)

杜伟和 Wei Ho Tu (id:1360498)

邓泰和 Tai Wo Tang (id:1394346)

林富伟 Fu-wai Lam (id:1433957)

江全 Chuen Chiang (id:1422721)

姚文基 Man-kei Yiu (id:1435360)

尹尚林 Hsiang Lin Yin (id:1406340)

黎海珊 Hoi-Shan Lai (id:1339517)

董玮 Wai Tung (id:1299617)

吴瑞庭 Shui Ting Ng (id:1376322)

罗莽 Meng Lo (id:1025509)

林韦辰 Wai-Sun Lam (id:1275045)

黄德斌 Tak-bun Wong (id:1274442)

曾守明 Sau Ming Tsang (id:1333246)

钱小蕙 Amy Chin (id:1280660)

黄永恒 Wing-Hung Wong (id:1300411)

阿积 Jack Ah (id:1304495)

胡大为 David Wu (id:1301332)

吴宇森 John Woo (id:1027853)

奚杰伟 Kit-Wai Kai (id:1288022)

梁华生 James Leung (id:1289862)

庄国荣 Kwok Wing Cheong (id:1280604)

余家安 Bruce Yu (id:1301555)

刘静仪 Sylvia Liu (id:1290178)

布瑞恩·施魏格曼 Brian Schwegmann (id:1401097)

丁远大 Yuen-Tai Ting (id:1299296)

罗礼贤 Bruce Law (id:1289542)

◎标 签 吴宇森 / 周润发 / 梁朝伟 / 香港 / 动作 / 香港电影 / 警匪 / 1992

◎简 介

袁浩云(周润发 饰)是警署侦探,为人正直但行事火爆。他的好友在一次捕匪行动中不幸遇难,令他更加急于报仇。袁正侦探一桩非法军火集团的重案,但为了案件侦破顺利,袁的上司决定让他不再负责此案。此时,袁的女友也离他而去,并对他的敌人产生了感情。这个敌人,正是军火集团里面的头号马仔江浪(梁朝伟 饰)。江郎行事拼命,千方百计博得集团头目信任。袁在追捕中与江相遇,眼看大难临头却发现江放他一马,原来另有内情。

◎获奖情况 (共2项)

第12届香港电影金像奖 (1993)

最佳男配角(提名)

└──梁朝伟 (id:1115918)

最佳剪接

└──胡大为 (id:1301332)

└──吴宇森 (id:1027853)

└──奚杰伟 (id:1288022)

└──阿积 (id:1304495)

  1. ##### MediaInfo ######

  2. General

  3. Unique ID : 240775498897594671939482636588580824469 (0xB523ACA03F11334C60AEAAC40D236595)

  4. Complete name : Hard.Boiled.1992.1080p.BluRay.x264.DTS.2Audio-10017@BBQDDQ.COM.mkv

  5. Format : Matroska

  6. Format version : Version 4

  7. File size : 12.6 GiB

  8. Duration : 2 h 7 min

  9. Overall bit rate : 14.2 Mb/s

  10. Movie name : Hard.Boiled

  11. Encoded date : UTC 2021-07-26 11:03:37

  12. Writing application : mkvmerge v51.0.0 ('I Wish') 64-bit

  13. Writing library : libebml v1.4.0 + libmatroska v1.6.2


  14. Video

  15. ID : 1

  16. Format : AVC

  17. Format/Info : Advanced Video Codec

  18. Format profile : High@L4.1

  19. Format settings : CABAC / 4 Ref Frames

  20. Format settings, CABAC : Yes

  21. Format settings, Reference frames : 4 frames

  22. Codec ID : V_MPEG4/ISO/AVC

  23. Duration : 2 h 7 min

  24. Bit rate : 12.0 Mb/s

  25. Width : 1 920 pixels

  26. Height : 1 080 pixels

  27. Display aspect ratio : 16:9

  28. Frame rate mode : Constant

  29. Frame rate : 24.000 FPS

  30. Color space : YUV

  31. Chroma subsampling : 4:2:0

  32. Bit depth : 8 bits

  33. Scan type : Progressive

  34. Bits/(Pixel*Frame) : 0.241

  35. Stream size : 10.7 GiB (85%)

  36. Writing library : x264 core 161 r3048+53M 0749c36 t_mod_New [(8 & 10)-bit@all X86_64]

  37. Encoding settings : cabac=1 / ref=4 / deblock=1:-3:-3 / analyse=0x3:0x133 / me=umh / subme=11 / psy=1 / fade_compensate=0.00 / psy_rd=1.00:0.00 / mixed_ref=1 / me_range=48 / chroma_me=1 / trellis=2 / 8x8dct=1 / cqm=0 / deadzone=21,11 / fast_pskip=0 / chroma_qp_offset=-3 / threads=18 / lookahead_threads=4 / sliced_threads=0 / nr=0 / decimate=0 / interlaced=0 / NTMzNTQ= / bluray_compat=0 / constrained_intra=0 / fgo=0 / bframes=11 / b_pyramid=2 / b_adapt=2 / b_bias=0 / direct=3 / weightb=1 / open_gop=0 / weightp=2 / keyint=240 / keyint_min=1 / NTMzNTQ=uuDQuD2mJt9fsCf / scenecut=40 / intra_refresh=0 / rc_lookahead=72 / rc=crf / mbtree=0 / crf=21.0000 / qcomp=0.60 / qpmin=0:0:0 / qpmax=69:69:69 / qpstep=4 / vbv_maxrate=62500 / vbv_bufsize=78125 / crf_max=0.0 / nal_hrd=none / filler=0 / NTMzNTQ=LmsMAP37EqsCpk / ip_ratio=1.40 / pb_ratio=1.30 / aq=1:0.60 / aq-sensitivity=10.00 / aq-factor=1.00:1.00:1.00 / aq2=0 / aq3=0

  38. Default : Yes

  39. Forced : No


  40. Audio #1

  41. ID : 2

  42. Format : DTS

  43. Format/Info : Digital Theater Systems

  44. Codec ID : A_DTS

  45. Duration : 2 h 7 min

  46. Bit rate mode : Constant

  47. Bit rate : 1 510 kb/s

  48. Channel(s) : 6 channels

  49. Channel layout : C L R Ls Rs LFE

  50. Sampling rate : 48.0 kHz

  51. Frame rate : 93.750 FPS (512 SPF)

  52. Bit depth : 24 bits

  53. Compression mode : Lossy

  54. Stream size : 1.35 GiB (11%)

  55. Title : Cantonese

  56. Default : Yes

  57. Forced : No


  58. Audio #2

  59. ID : 3

  60. ID in the original source medium : 4353 (0x1101)

  61. Format : AC-3

  62. Format/Info : Audio Coding 3

  63. Commercial name : Dolby Digital

  64. Codec ID : A_AC3

  65. Duration : 2 h 7 min

  66. Bit rate mode : Constant

  67. Bit rate : 640 kb/s

  68. Channel(s) : 6 channels

  69. Channel layout : L R C LFE Ls Rs

  70. Sampling rate : 48.0 kHz

  71. Frame rate : 31.250 FPS (1536 SPF)

  72. Compression mode : Lossy

  73. Stream size : 584 MiB (5%)

  74. Title : Mandarin

  75. Language : Chinese

  76. Service kind : Complete Main

  77. Default : No

  78. Forced : No

  79. Original source medium : Blu-ray


  80. Text #1

  81. ID : 4

  82. ID in the original source medium : 4609 (0x1201)

  83. Format : PGS

  84. Muxing mode : zlib

  85. Codec ID : S_HDMV/PGS

  86. Codec ID/Info : Picture based subtitle format used on BDs/HD-DVDs

  87. Duration : 2 h 3 min

  88. Bit rate : 20.5 kb/s

  89. Count of elements : 1950

  90. Stream size : 18.0 MiB (0%)

  91. Title : chs

  92. Language : Chinese

  93. Default : Yes

  94. Forced : No

  95. Original source medium : Blu-ray


  96. Text #2

  97. ID : 5

  98. ID in the original source medium : 4608 (0x1200)

  99. Format : PGS

  100. Muxing mode : zlib

  101. Codec ID : S_HDMV/PGS

  102. Codec ID/Info : Picture based subtitle format used on BDs/HD-DVDs

  103. Duration : 2 h 3 min

  104. Bit rate : 22.1 kb/s

  105. Count of elements : 1950

  106. Stream size : 19.5 MiB (0%)

  107. Title : cht

  108. Language : Chinese

  109. Default : No

  110. Forced : No

  111. Original source medium : Blu-ray


  112. Text #3

  113. ID : 6

  114. ID in the original source medium : 4610 (0x1202)

  115. Format : PGS

  116. Muxing mode : zlib

  117. Codec ID : S_HDMV/PGS

  118. Codec ID/Info : Picture based subtitle format used on BDs/HD-DVDs

  119. Duration : 2 h 3 min

  120. Bit rate : 22.6 kb/s

  121. Count of elements : 1950

  122. Stream size : 19.9 MiB (0%)

  123. Title : eng

  124. Language : English

  125. Default : No

  126. Forced : No

  127. Original source medium : Blu-ray


  128. Menu

  129. 00:00:00.000 : en:第 01 章

  130. 00:11:43.250 : en:第 02 章

  131. 00:20:12.750 : en:第 03 章

  132. 00:29:34.583 : en:第 04 章

  133. 00:39:13.250 : en:第 05 章

  134. 00:52:33.583 : en:第 06 章

  135. 01:06:46.000 : en:第 07 章

  136. 01:15:19.041 : en:第 08 章

  137. 01:29:50.125 : en:第 09 章

  138. 01:41:13.875 : en:第 10 章

  139. 01:52:47.458 : en:第 11 章

  140. 02:01:45.125 : en:第 12 章


文件下载


除非特别注明,本文『辣手神探[国粤语音轨/中文字幕]Hard.Boiled.1992.1080p.BluRay.x264.DTS.2Audio-迅雷下载 12.64GB』来源于互联网机器人自动抓取,非本站原创。 浮游电影网不对本文拥有版权,如有侵犯,请联系邮箱:fuyouu#yandex.com[#换成@]投诉。我们会在15个工作日内删除。 但烦请转载时请标明出处:“本文转载于『浮游电影网』,原文地址:https://www.fuyouu.com/13289.html

评论吧骚年!

发表你的见解   

昵称*

E-mail*(建议输入,以便收到博主回复的提示邮件)

验证码*

您可以使用eMule或eMule Mod(Windows)、aMule(Win、Linux、Mac)等软件下载eD2k链接。。
eMule收藏集(.emulecollection)文件是您选中的所有链接的列表文件。eMule可以直接下载它们。
按住SHIFT键选择可以选中多个选择框。
可用文件名和大小选择器来选择文件。
文件名选择器帮您根据文件名称或后缀来选择文件。不分大小写。
符号使用:
和:空格( )、+
不包含:-
或:|
转义:一对英文引号("");
匹配开头:^
匹配结尾:$
例如:
选中所有名称中包含有“eMule”或“0.49c”字眼,但不包含有“exe”字眼的:emule|0.49c -exe
选中所有名称的开头是“eMule”,结尾是“0.49c”的:^emule 0.49c$
选中所有名称中带有“eMule 0.49c”的(必须是“eMule 0.49c”,中间没有别的字符,不能是“eMule fake 0.49c”),需要转义:"emule 0.49c"
大小选择器帮您根据文件大小选择文件。