当前位置: 首页 >> 国产电视剧 >> 陌生的恋人.Lover.or.Stranger.迅雷下载[全29集][国语中字.发行商水印][WEB-DL-MP4][1080P][Vampire] >> 正文

陌生的恋人.Lover.or.Stranger.迅雷下载[全29集][国语中字.发行商水印][WEB-DL-MP4][1080P][Vampire]

2021年07月29日 19:49:49     电影发布:来源于网络     电影分类:国产电视剧     评论(0)    

陌生的恋人.Lover.or.Stranger.迅雷下载[全29集][国语中字.发行商水印][WEB DL MP4][1080P][Vampire] 悬疑片 爱情片 剧情片 国产电视剧  第1张


◎译 名 Lover or Stranger

◎片 名 陌生的恋人

◎年 代 2021

◎产 地 中国大陆

◎类 别 剧情 / 爱情 / 悬疑

◎语 言 汉语普通话

◎上映日期 2021-07-12(中国大陆)

◎豆瓣评分 0/10 from 0 users

◎豆瓣链接 https://movie.douban.com/subject/35033542

◎集 数 29

◎片 长 45分钟

◎导 演 黄天仁 Tien-Jen Huang

◎主 演 宋茜 Victoria Song

欧豪 Oho Ou

张赫 He Zhang

何杜娟 Dujuan He

戴景耀 Jingyao Dai

范静祎 Jingyi Fan

王艺哲 Yizhe Wang

陶海 Hai Tao

田雷 Lei Tian

黄德毅 Deyi Huang


◎标 签 悬疑 | 宋茜 | 欧豪 | 电视剧 | 烧脑 | 爱情 | 国产剧 | 剧情


◎简 介


该剧讲述了一场雪崩之后失忆的女小提琴手,在与若即若离的神秘企业家未婚夫即将迎来婚礼的时刻,从重重迷雾中寻找自我和救赎爱情的故事。


陌生的恋人.Lover.or.Stranger.迅雷下载[全29集][国语中字.发行商水印][WEB DL MP4][1080P][Vampire] 悬疑片 爱情片 剧情片 国产电视剧  第2张陌生的恋人.Lover.or.Stranger.迅雷下载[全29集][国语中字.发行商水印][WEB DL MP4][1080P][Vampire] 悬疑片 爱情片 剧情片 国产电视剧  第3张


General

Complete name : G:\陌生的恋人.Lover.or.Stranger.2021.EP29.1080P.WEB-DL.X264.AAC-Vampire.mp4

Format : MPEG-4

Format profile : Base Media

Codec ID : isom (isom/iso2/avc1/mp41)

File size : 1.53 GiB

Duration : 46 min 13 s

Overall bit rate : 4 747 kb/s

Movie name : 陌生的恋人/Lover.or.Stranger

Album : 国产网络剧集系列

Performer : Vampire制作分享作品

Genre : 中国大陆

Recorded date : 2021

Writing application : Lavf58.29.100

Cover : Yes

Comment : 警告:严禁将本人制作的任何作品用于商业性质活动,所有制作作品仅限于测试宽带之用,请于下载后24小时内删除。本人不承担任何法律后果!喜欢本作品请购买正版!!!


Video

ID : 1

Format : AVC

Format/Info : Advanced Video Codec

Format profile : [email protected]

Format settings : CABAC / 4 Ref Frames

Format settings, CABAC : Yes

Format settings, Reference fra : 4 frames

Codec ID : avc1

Codec ID/Info : Advanced Video Coding

Duration : 46 min 13 s

Bit rate : 4 501 kb/s

Width : 1 920 pixels

Height : 1 080 pixels

Display aspect ratio : 16:9

Frame rate mode : Constant

Frame rate : 25.000 FPS

Color space : YUV

Chroma subsampling : 4:2:0

Bit depth : 8 bits

Scan type : Progressive

Bits/(Pixel*Frame) : 0.087

Stream size : 1.49 GiB (97%)

Writing library : x264 core 148

Encoding settings : cabac=1 / ref=3 / deblock=1:0:0 / analyse=0x3:0x113 / me=hex / subme=7 / psy=1 / psy_rd=1.00:0.00 / mixed_ref=1 / me_range=16 / chroma_me=1 / trellis=1 / 8x8dct=1 / cqm=0 / deadzone=21,11 / fast_pskip=1 / chroma_qp_offset=-2 / threads=18 / lookahead_threads=3 / sliced_threads=0 / nr=0 / decimate=1 / interlaced=0 / bluray_compat=0 / constrained_intra=0 / bframes=3 / b_pyramid=2 / b_adapt=1 / b_bias=0 / direct=1 / weightb=1 / open_gop=0 / weightp=2 / keyint=250 / keyint_min=25 / scenecut=40 / intra_refresh=0 / rc_lookahead=40 / rc=abr / mbtree=1 / bitrate=4501 / ratetol=1.0 / qcomp=0.60 / qpmin=0 / qpmax=69 / qpstep=4 / ip_ratio=1.40 / aq=1:1.00

Codec configuration box : avcC


Audio

ID : 2

Format : AAC LC

Format/Info : Advanced Audio Codec Low Complexity

Codec ID : mp4a-40-2

Duration : 46 min 13 s

Bit rate mode : Constant

Bit rate : 128 kb/s

Channel(s) : 2 channels

Channel layout : L R

Sampling rate : 44.1 kHz

Frame rate : 43.066 FPS (1024 SPF)

Compression mode : Lossy

Stream size : 42.5 MiB (3%)

Default : Yes

Alternate group : 1




文件下载


除非特别注明,本文『陌生的恋人.Lover.or.Stranger.迅雷下载[全29集][国语中字.发行商水印][WEB-DL-MP4][1080P][Vampire]』来源于互联网机器人自动抓取,非本站原创。 浮游电影网不对本文拥有版权,如有侵犯,请联系邮箱:fuyouu#yandex.com[#换成@]投诉。我们会在15个工作日内删除。 但烦请转载时请标明出处:“本文转载于『浮游电影网』,原文地址:https://www.fuyouu.com/13285.html

评论吧骚年!

发表你的见解   

昵称*

E-mail*(建议输入,以便收到博主回复的提示邮件)

验证码*

您可以使用eMule或eMule Mod(Windows)、aMule(Win、Linux、Mac)等软件下载eD2k链接。。
eMule收藏集(.emulecollection)文件是您选中的所有链接的列表文件。eMule可以直接下载它们。
按住SHIFT键选择可以选中多个选择框。
可用文件名和大小选择器来选择文件。
文件名选择器帮您根据文件名称或后缀来选择文件。不分大小写。
符号使用:
和:空格( )、+
不包含:-
或:|
转义:一对英文引号("");
匹配开头:^
匹配结尾:$
例如:
选中所有名称中包含有“eMule”或“0.49c”字眼,但不包含有“exe”字眼的:emule|0.49c -exe
选中所有名称的开头是“eMule”,结尾是“0.49c”的:^emule 0.49c$
选中所有名称中带有“eMule 0.49c”的(必须是“eMule 0.49c”,中间没有别的字符,不能是“eMule fake 0.49c”),需要转义:"emule 0.49c"
大小选择器帮您根据文件大小选择文件。