当前位置: 首页 >> 欧美电影 >> 谢里[简繁字幕]Cherry.2021.2160p.HDR.ATVP.WEB-DL.DDP5.1.Atmos.HEVC-迅雷下载 31.23GB >> 正文

谢里[简繁字幕]Cherry.2021.2160p.HDR.ATVP.WEB-DL.DDP5.1.Atmos.HEVC-迅雷下载 31.23GB

2021年07月28日 10:40:54     电影发布:来源于网络     电影分类:欧美电影     评论(0)    

谢里[简繁字幕]Cherry.2021.2160p.HDR.ATVP.WEB DL.DDP5.1.Atmos.HEVC 迅雷下载 31.23GB 犯罪片 剧情片 欧美电影  第1张

◎译 名 谢里 / 雏兵

◎片 名 Cherry

◎年 代 2021

◎产 地 美国

◎类 别 剧情 / 犯罪

◎语 言 英语

◎上映日期 2021-02-26(美国) / 2021-03-12(美国网络)

◎IMDb链接 https://www.imdb.com/title/tt9130508/

◎豆瓣评分 6.6/10 (3310人评价)

◎豆瓣链接 https://movie.douban.com/subject/30310219/

◎片 长 140分钟

◎导 演 安东尼·罗素 Anthony Russo (id:1321812)

乔·罗素 Joe Russo (id:1320870)

◎编 剧 杰西卡·戈德堡 Jessica Goldberg (id:1357252)

尼科·沃克 Nico Walker (id:1436961)

◎演 员 汤姆·赫兰德 Tom Holland (id:1325351)

席亚拉·博拉沃 Ciara Bravo (id:1250344)

杰克·莱诺 Jack Reynor (id:1326135)

迈克尔·里斯波利 Michael Rispoli (id:1036576)

杰弗里·沃尔伯格 Jeffrey Wahlberg (id:1413360)

福勒斯特·古德勒克 Forrest Goodluck (id:1354169)

迈克尔·甘多菲尼 Michael Gandolfini (id:1393412)

丹尼尔·R·希尔 Daniel R. Hill (id:1408428)

费昂·奥谢 Fionn O'Shea (id:1363500)

奥拉·奥雷比伊 Ola Orebiyi (id:1449866)

凯恩·扎贾斯 Kaine Zajaz (id:1432966)

西奥·巴克利姆-比格斯 Theo Barklem-Biggs (id:1319679)

普奇·豪尔 Pooch Hall (id:1092764)

何塞·巴勃罗·坎蒂略 Jose Pablo Cantillo (id:1000476)

小达蒙·韦恩斯 Damon Wayans Jr. (id:1312985)

亚当·朗 Adam Long (id:1433009)

利亚姆·加里根 Liam Garrigan (id:1315910)

弗兰克·布莱克 Frank Blake (id:1438668)

杰弗里·格罗弗 Jeffrey Grover (id:1342557)

凯莉·伯格伦德 Kelli Berglund (id:1393173)

苏黑尔·达巴赫 Suhail Dabbach (id:1448023)

乔·罗素 Joe Russo (id:1320870)

瑞奇·韦恩 Ricky Wayne (id:1370328)

克雷格·赫利 Craig Hurley (id:1114123)

托马斯·列农 Thomas Lennon (id:1025213)

杰米·布鲁尔 Jamie Brewer (id:1336819)

托尼·戈因斯 Toney Goins (id:1440343)

安娜·科尔韦尔 Anna Colwell (id:1337530)

贾辛特 Jacinte Blankenship (id:1430644)

鲍比·斯科菲尔德 Bobby Schofield (id:1388859)

纳尔逊·波尼拉 Nelson Bonilla (id:1395026)

妮可·福斯特 Nicole Forester (id:1343414)

伯尼·科萨 Bernie Kosar (id:1174903)

哈里·赫兰德 Harry Holland (id:1450046)

比尔·斯卡斯加德 Bill Skarsg?rd (id:1022798)

凯尔 Kyle (id:1399807)

凯莱·霍华德 Kellye Howard (id:1196318)

洛根·弗莱 Logan Fry (id:1373511)

亨利·杰克曼 Henry Jackman (id:1315635)

◎标 签 犯罪 / 美国 / 汤姆·赫兰德 / 剧情 / 荷兰弟 / 罗素兄弟 / TomHolland / 真实事件改编

◎简 介

根据尼科·沃克的同名小说改编,故事涉及创伤后应激障碍,故事讲述一个来自富裕家庭的男子本拥有美好生活,此后他远离家乡,到伊拉克成为一名军医,而当他返回家乡后便患上了创伤后应激障碍,此后他吸毒、负债累累,他更是先后抢劫了11家银行。

◎获奖情况 (共2项)

第35届美国摄影协会奖 (2021)

电影长片最佳摄影(提名)

└──纽顿·托马斯·西格尔 (id:1276570)

第68届美国音效剪辑协会奖 (2021)

金卷轴奖 最佳电影音效剪辑(提名)

  1. ##### MediaInfo ######

  2. General

  3. Unique ID : 171050693820306757020966317690720600403 (0x80AF2A52A6FDBA91E930F6DB1C83C153)

  4. Complete name : Cherry.2021.2160p.HDR.ATVP.WEB-DL.DDP5.1.Atmos.HEVC-10002@BBQDDQ.COM.mkv

  5. Format : Matroska

  6. Format version : Version 4

  7. File size : 31.2 GiB

  8. Duration : 2 h 21 min

  9. Overall bit rate : 31.7 Mb/s

  10. Encoded date : UTC 2021-07-27 08:11:20

  11. Writing application : mkvmerge v59.0.0 ('Shining Star') 64-bit

  12. Writing library : libebml v1.4.2 + libmatroska v1.6.4


  13. Video

  14. ID : 1

  15. Format : HEVC

  16. Format/Info : High Efficiency Video Coding

  17. Format profile : Main 10@L5@High

  18. HDR format : SMPTE ST 2086, HDR10 compatible

  19. Codec ID : V_MPEGH/ISO/HEVC

  20. Duration : 2 h 21 min

  21. Bit rate : 24.0 Mb/s

  22. Width : 3 840 pixels

  23. Height : 1 610 pixels

  24. Display aspect ratio : 2.40:1

  25. Frame rate mode : Constant

  26. Frame rate : 23.976 FPS

  27. Color space : YUV

  28. Chroma subsampling : 4:2:0 (Type 2)

  29. Bit depth : 10 bits

  30. Bits/(Pixel*Frame) : 0.162

  31. Stream size : 23.7 GiB (76%)

  32. Language : English

  33. Default : Yes

  34. Forced : No

  35. Color range : Limited

  36. Color primaries : BT.2020

  37. Transfer characteristics : PQ

  38. Matrix coefficients : BT.2020 non-constant

  39. Mastering display color primaries : Display P3

  40. Mastering display luminance : min: 0.0050 cd/m2, max: 1000 cd/m2

  41. Maximum Content Light Level : 1395 cd/m2

  42. Maximum Frame-Average Light Level : 414 cd/m2


  43. Audio #1

  44. ID : 2

  45. Format : E-AC-3 JOC

  46. Format/Info : Enhanced AC-3 with Joint Object Coding

  47. Commercial name : Dolby Digital Plus with Dolby Atmos

  48. Codec ID : A_EAC3

  49. Duration : 2 h 21 min

  50. Bit rate mode : Constant

  51. Bit rate : 768 kb/s

  52. Channel(s) : 6 channels

  53. Channel layout : L R C LFE Ls Rs

  54. Sampling rate : 48.0 kHz

  55. Frame rate : 31.250 FPS (1536 SPF)

  56. Compression mode : Lossy

  57. Stream size : 775 MiB (2%)

  58. Title : English

  59. Language : English

  60. Service kind : Complete Main

  61. Default : Yes

  62. Forced : No

  63. Complexity index : 16

  64. Number of dynamic objects : 15

  65. Bed channel count : 1 channel

  66. Bed channel configuration : LFE


  67. Audio #2

  68. ID : 3

  69. Format : E-AC-3 JOC

  70. Format/Info : Enhanced AC-3 with Joint Object Coding

  71. Commercial name : Dolby Digital Plus with Dolby Atmos

  72. Codec ID : A_EAC3

  73. Duration : 2 h 21 min

  74. Bit rate mode : Constant

  75. Bit rate : 768 kb/s

  76. Channel(s) : 6 channels

  77. Channel layout : L R C LFE Ls Rs

  78. Sampling rate : 48.0 kHz

  79. Frame rate : 31.250 FPS (1536 SPF)

  80. Compression mode : Lossy

  81. Stream size : 775 MiB (2%)

  82. Title : French

  83. Language : French

  84. Service kind : Complete Main

  85. Default : No

  86. Forced : No

  87. Complexity index : 16

  88. Number of dynamic objects : 15

  89. Bed channel count : 1 channel

  90. Bed channel configuration : LFE


  91. Audio #3

  92. ID : 4

  93. Format : E-AC-3 JOC

  94. Format/Info : Enhanced AC-3 with Joint Object Coding

  95. Commercial name : Dolby Digital Plus with Dolby Atmos

  96. Codec ID : A_EAC3

  97. Duration : 2 h 21 min

  98. Bit rate mode : Constant

  99. Bit rate : 768 kb/s

  100. Channel(s) : 6 channels

  101. Channel layout : L R C LFE Ls Rs

  102. Sampling rate : 48.0 kHz

  103. Frame rate : 31.250 FPS (1536 SPF)

  104. Compression mode : Lossy

  105. Stream size : 775 MiB (2%)

  106. Title : French Canadian

  107. Language : French

  108. Service kind : Complete Main

  109. Default : No

  110. Forced : No

  111. Complexity index : 16

  112. Number of dynamic objects : 15

  113. Bed channel count : 1 channel

  114. Bed channel configuration : LFE


  115. Audio #4

  116. ID : 5

  117. Format : E-AC-3 JOC

  118. Format/Info : Enhanced AC-3 with Joint Object Coding

  119. Commercial name : Dolby Digital Plus with Dolby Atmos

  120. Codec ID : A_EAC3

  121. Duration : 2 h 21 min

  122. Bit rate mode : Constant

  123. Bit rate : 768 kb/s

  124. Channel(s) : 6 channels

  125. Channel layout : L R C LFE Ls Rs

  126. Sampling rate : 48.0 kHz

  127. Frame rate : 31.250 FPS (1536 SPF)

  128. Compression mode : Lossy

  129. Stream size : 775 MiB (2%)

  130. Title : German

  131. Language : German

  132. Service kind : Complete Main

  133. Default : No

  134. Forced : No

  135. Complexity index : 16

  136. Number of dynamic objects : 15

  137. Bed channel count : 1 channel

  138. Bed channel configuration : LFE


  139. Audio #5

  140. ID : 6

  141. Format : E-AC-3 JOC

  142. Format/Info : Enhanced AC-3 with Joint Object Coding

  143. Commercial name : Dolby Digital Plus with Dolby Atmos

  144. Codec ID : A_EAC3

  145. Duration : 2 h 21 min

  146. Bit rate mode : Constant

  147. Bit rate : 768 kb/s

  148. Channel(s) : 6 channels

  149. Channel layout : L R C LFE Ls Rs

  150. Sampling rate : 48.0 kHz

  151. Frame rate : 31.250 FPS (1536 SPF)

  152. Compression mode : Lossy

  153. Stream size : 775 MiB (2%)

  154. Title : Italian

  155. Language : Italian

  156. Service kind : Complete Main

  157. Default : No

  158. Forced : No

  159. Complexity index : 16

  160. Number of dynamic objects : 15

  161. Bed channel count : 1 channel

  162. Bed channel configuration : LFE


  163. Audio #6

  164. ID : 7

  165. Format : E-AC-3 JOC

  166. Format/Info : Enhanced AC-3 with Joint Object Coding

  167. Commercial name : Dolby Digital Plus with Dolby Atmos

  168. Codec ID : A_EAC3

  169. Duration : 2 h 21 min

  170. Bit rate mode : Constant

  171. Bit rate : 768 kb/s

  172. Channel(s) : 6 channels

  173. Channel layout : L R C LFE Ls Rs

  174. Sampling rate : 48.0 kHz

  175. Frame rate : 31.250 FPS (1536 SPF)

  176. Compression mode : Lossy

  177. Stream size : 775 MiB (2%)

  178. Title : Japanese

  179. Language : Japanese

  180. Service kind : Complete Main

  181. Default : No

  182. Forced : No

  183. Complexity index : 16

  184. Number of dynamic objects : 15

  185. Bed channel count : 1 channel

  186. Bed channel configuration : LFE


  187. Audio #7

  188. ID : 8

  189. Format : E-AC-3 JOC

  190. Format/Info : Enhanced AC-3 with Joint Object Coding

  191. Commercial name : Dolby Digital Plus with Dolby Atmos

  192. Codec ID : A_EAC3

  193. Duration : 2 h 21 min

  194. Bit rate mode : Constant

  195. Bit rate : 768 kb/s

  196. Channel(s) : 6 channels

  197. Channel layout : L R C LFE Ls Rs

  198. Sampling rate : 48.0 kHz

  199. Frame rate : 31.250 FPS (1536 SPF)

  200. Compression mode : Lossy

  201. Stream size : 775 MiB (2%)

  202. Title : Brazilian Portuguese

  203. Language : Portuguese

  204. Service kind : Complete Main

  205. Default : No

  206. Forced : No

  207. Complexity index : 16

  208. Number of dynamic objects : 15

  209. Bed channel count : 1 channel

  210. Bed channel configuration : LFE


  211. Audio #8

  212. ID : 9

  213. Format : E-AC-3 JOC

  214. Format/Info : Enhanced AC-3 with Joint Object Coding

  215. Commercial name : Dolby Digital Plus with Dolby Atmos

  216. Codec ID : A_EAC3

  217. Duration : 2 h 21 min

  218. Bit rate mode : Constant

  219. Bit rate : 768 kb/s

  220. Channel(s) : 6 channels

  221. Channel layout : L R C LFE Ls Rs

  222. Sampling rate : 48.0 kHz

  223. Frame rate : 31.250 FPS (1536 SPF)

  224. Compression mode : Lossy

  225. Stream size : 775 MiB (2%)

  226. Title : Russian

  227. Language : Russian

  228. Service kind : Complete Main

  229. Default : No

  230. Forced : No

  231. Complexity index : 16

  232. Number of dynamic objects : 15

  233. Bed channel count : 1 channel

  234. Bed channel configuration : LFE


  235. Audio #9

  236. ID : 10

  237. Format : E-AC-3 JOC

  238. Format/Info : Enhanced AC-3 with Joint Object Coding

  239. Commercial name : Dolby Digital Plus with Dolby Atmos

  240. Codec ID : A_EAC3

  241. Duration : 2 h 21 min

  242. Bit rate mode : Constant

  243. Bit rate : 768 kb/s

  244. Channel(s) : 6 channels

  245. Channel layout : L R C LFE Ls Rs

  246. Sampling rate : 48.0 kHz

  247. Frame rate : 31.250 FPS (1536 SPF)

  248. Compression mode : Lossy

  249. Stream size : 775 MiB (2%)

  250. Title : Spanish

  251. Language : Spanish

  252. Service kind : Complete Main

  253. Default : No

  254. Forced : No

  255. Complexity index : 16

  256. Number of dynamic objects : 15

  257. Bed channel count : 1 channel

  258. Bed channel configuration : LFE


  259. Audio #10

  260. ID : 11

  261. Format : E-AC-3 JOC

  262. Format/Info : Enhanced AC-3 with Joint Object Coding

  263. Commercial name : Dolby Digital Plus with Dolby Atmos

  264. Codec ID : A_EAC3

  265. Duration : 2 h 21 min

  266. Bit rate mode : Constant

  267. Bit rate : 768 kb/s

  268. Channel(s) : 6 channels

  269. Channel layout : L R C LFE Ls Rs

  270. Sampling rate : 48.0 kHz

  271. Frame rate : 31.250 FPS (1536 SPF)

  272. Compression mode : Lossy

  273. Stream size : 775 MiB (2%)

  274. Title : European Spanish

  275. Language : Spanish

  276. Service kind : Complete Main

  277. Default : No

  278. Forced : No

  279. Complexity index : 16

  280. Number of dynamic objects : 15

  281. Bed channel count : 1 channel

  282. Bed channel configuration : LFE


  283. Text #1

  284. ID : 12

  285. Format : UTF-8

  286. Codec ID : S_TEXT/UTF8

  287. Codec ID/Info : UTF-8 Plain Text

  288. Duration : 2 h 20 min

  289. Bit rate : 126 b/s

  290. Count of elements : 1646

  291. Stream size : 131 KiB (0%)

  292. Title : Hindi

  293. Language : Hindi

  294. Default : No

  295. Forced : No


  296. Text #2

  297. ID : 13

  298. Format : UTF-8

  299. Codec ID : S_TEXT/UTF8

  300. Codec ID/Info : UTF-8 Plain Text

  301. Duration : 2 h 20 min

  302. Bit rate : 162 b/s

  303. Count of elements : 1645

  304. Stream size : 168 KiB (0%)

  305. Title : Tamil

  306. Language : Tamil

  307. Default : No

  308. Forced : No


  309. Text #3

  310. ID : 14

  311. Format : UTF-8

  312. Codec ID : S_TEXT/UTF8

  313. Codec ID/Info : UTF-8 Plain Text

  314. Duration : 2 h 20 min

  315. Bit rate : 152 b/s

  316. Count of elements : 1645

  317. Stream size : 158 KiB (0%)

  318. Title : Telugu

  319. Language : Telugu

  320. Default : No

  321. Forced : No


  322. Text #4

  323. ID : 15

  324. Format : UTF-8

  325. Codec ID : S_TEXT/UTF8

  326. Codec ID/Info : UTF-8 Plain Text

  327. Duration : 2 h 10 min

  328. Bit rate : 60 b/s

  329. Count of elements : 1618

  330. Stream size : 57.7 KiB (0%)

  331. Title : English

  332. Language : English

  333. Default : Yes

  334. Forced : No


  335. Text #5

  336. ID : 16

  337. Format : UTF-8

  338. Codec ID : S_TEXT/UTF8

  339. Codec ID/Info : UTF-8 Plain Text

  340. Duration : 2 h 20 min

  341. Bit rate : 78 b/s

  342. Count of elements : 1645

  343. Stream size : 80.8 KiB (0%)

  344. Title : Arabic

  345. Language : Arabic

  346. Default : No

  347. Forced : No


  348. Text #6

  349. ID : 17

  350. Format : UTF-8

  351. Codec ID : S_TEXT/UTF8

  352. Codec ID/Info : UTF-8 Plain Text

  353. Duration : 2 h 20 min

  354. Bit rate : 75 b/s

  355. Count of elements : 1592

  356. Stream size : 78.3 KiB (0%)

  357. Title : Bulgarian

  358. Language : Bulgarian

  359. Default : No

  360. Forced : No


  361. Text #7

  362. ID : 18

  363. Format : UTF-8

  364. Codec ID : S_TEXT/UTF8

  365. Codec ID/Info : UTF-8 Plain Text

  366. Duration : 2 h 20 min

  367. Bit rate : 48 b/s

  368. Count of elements : 1594

  369. Stream size : 50.1 KiB (0%)

  370. Title : Czech

  371. Language : Czech

  372. Default : No

  373. Forced : No


  374. Text #8

  375. ID : 19

  376. Format : UTF-8

  377. Codec ID : S_TEXT/UTF8

  378. Codec ID/Info : UTF-8 Plain Text

  379. Duration : 2 h 20 min

  380. Bit rate : 46 b/s

  381. Count of elements : 1632

  382. Stream size : 48.1 KiB (0%)

  383. Title : Danish

  384. Language : Danish

  385. Default : No

  386. Forced : No


  387. Text #9

  388. ID : 20

  389. Format : UTF-8

  390. Codec ID : S_TEXT/UTF8

  391. Codec ID/Info : UTF-8 Plain Text

  392. Duration : 2 h 20 min

  393. Bit rate : 46 b/s

  394. Count of elements : 1522

  395. Stream size : 47.9 KiB (0%)

  396. Title : Dutch

  397. Language : Dutch

  398. Default : No

  399. Forced : No


  400. Text #10

  401. ID : 21

  402. Format : UTF-8

  403. Codec ID : S_TEXT/UTF8

  404. Codec ID/Info : UTF-8 Plain Text

  405. Duration : 2 h 20 min

  406. Bit rate : 49 b/s

  407. Count of elements : 1464

  408. Stream size : 50.8 KiB (0%)

  409. Title : Estonian

  410. Language : Estonian

  411. Default : No

  412. Forced : No


  413. Text #11

  414. ID : 22

  415. Format : UTF-8

  416. Codec ID : S_TEXT/UTF8

  417. Codec ID/Info : UTF-8 Plain Text

  418. Duration : 2 h 20 min

  419. Bit rate : 50 b/s

  420. Count of elements : 1642

  421. Stream size : 51.7 KiB (0%)

  422. Title : Finnish

  423. Language : Finnish

  424. Default : No

  425. Forced : No


  426. Text #12

  427. ID : 23

  428. Format : UTF-8

  429. Codec ID : S_TEXT/UTF8

  430. Codec ID/Info : UTF-8 Plain Text

  431. Duration : 2 h 20 min

  432. Bit rate : 46 b/s

  433. Count of elements : 1616

  434. Stream size : 48.4 KiB (0%)

  435. Title : French

  436. Language : French

  437. Default : No

  438. Forced : No


  439. Text #13

  440. ID : 24

  441. Format : UTF-8

  442. Codec ID : S_TEXT/UTF8

  443. Codec ID/Info : UTF-8 Plain Text

  444. Duration : 2 h 20 min

  445. Bit rate : 46 b/s

  446. Count of elements : 1617

  447. Stream size : 48.4 KiB (0%)

  448. Title : French Canadian

  449. Language : French

  450. Default : No

  451. Forced : No


  452. Text #14

  453. ID : 25

  454. Format : UTF-8

  455. Codec ID : S_TEXT/UTF8

  456. Codec ID/Info : UTF-8 Plain Text

  457. Duration : 2 h 20 min

  458. Bit rate : 46 b/s

  459. Count of elements : 1617

  460. Stream size : 48.4 KiB (0%)

  461. Title : Canadian French

  462. Language : French

  463. Default : No

  464. Forced : No


  465. Text #15

  466. ID : 26

  467. Format : UTF-8

  468. Codec ID : S_TEXT/UTF8

  469. Codec ID/Info : UTF-8 Plain Text

  470. Duration : 2 h 20 min

  471. Bit rate : 50 b/s

  472. Count of elements : 1410

  473. Stream size : 52.5 KiB (0%)

  474. Title : German

  475. Language : German

  476. Default : No

  477. Forced : No


  478. Text #16

  479. ID : 27

  480. Format : UTF-8

  481. Codec ID : S_TEXT/UTF8

  482. Codec ID/Info : UTF-8 Plain Text

  483. Duration : 2 h 20 min

  484. Bit rate : 84 b/s

  485. Count of elements : 1528

  486. Stream size : 87.7 KiB (0%)

  487. Title : Greek

  488. Language : Greek

  489. Default : No

  490. Forced : No


  491. Text #17

  492. ID : 28

  493. Format : UTF-8

  494. Codec ID : S_TEXT/UTF8

  495. Codec ID/Info : UTF-8 Plain Text

  496. Duration : 2 h 20 min

  497. Bit rate : 69 b/s

  498. Count of elements : 1649

  499. Stream size : 71.2 KiB (0%)

  500. Title : Hebrew

  501. Language : Hebrew

  502. Default : No

  503. Forced : No


  504. Text #18

  505. ID : 29

  506. Format : UTF-8

  507. Codec ID : S_TEXT/UTF8

  508. Codec ID/Info : UTF-8 Plain Text

  509. Duration : 2 h 20 min

  510. Bit rate : 49 b/s

  511. Count of elements : 1640

  512. Stream size : 51.5 KiB (0%)

  513. Title : Hungarian

  514. Language : Hungarian

  515. Default : No

  516. Forced : No


  517. Text #19

  518. ID : 30

  519. Format : UTF-8

  520. Codec ID : S_TEXT/UTF8

  521. Codec ID/Info : UTF-8 Plain Text

  522. Duration : 2 h 20 min

  523. Bit rate : 54 b/s

  524. Count of elements : 1644

  525. Stream size : 55.8 KiB (0%)

  526. Title : Indonesian

  527. Language : Indonesian

  528. Default : No

  529. Forced : No


  530. Text #20

  531. ID : 31

  532. Format : UTF-8

  533. Codec ID : S_TEXT/UTF8

  534. Codec ID/Info : UTF-8 Plain Text

  535. Duration : 2 h 20 min

  536. Bit rate : 53 b/s

  537. Count of elements : 1641

  538. Stream size : 55.0 KiB (0%)

  539. Title : Italian

  540. Language : Italian

  541. Default : No

  542. Forced : No


  543. Text #21

  544. ID : 32

  545. Format : UTF-8

  546. Codec ID : S_TEXT/UTF8

  547. Codec ID/Info : UTF-8 Plain Text

  548. Duration : 2 h 20 min

  549. Bit rate : 37 b/s

  550. Count of elements : 1410

  551. Stream size : 39.1 KiB (0%)

  552. Title : Japanese

  553. Language : Japanese

  554. Default : No

  555. Forced : No


  556. Text #22

  557. ID : 33

  558. Format : UTF-8

  559. Codec ID : S_TEXT/UTF8

  560. Codec ID/Info : UTF-8 Plain Text

  561. Duration : 2 h 20 min

  562. Bit rate : 55 b/s

  563. Count of elements : 1650

  564. Stream size : 56.9 KiB (0%)

  565. Title : Korean

  566. Language : Korean

  567. Default : No

  568. Forced : No


  569. Text #23

  570. ID : 34

  571. Format : UTF-8

  572. Codec ID : S_TEXT/UTF8

  573. Codec ID/Info : UTF-8 Plain Text

  574. Duration : 2 h 20 min

  575. Bit rate : 51 b/s

  576. Count of elements : 1646

  577. Stream size : 53.5 KiB (0%)

  578. Title : Lithuanian

  579. Language : Lithuanian

  580. Default : No

  581. Forced : No


  582. Text #24

  583. ID : 35

  584. Format : UTF-8

  585. Codec ID : S_TEXT/UTF8

  586. Codec ID/Info : UTF-8 Plain Text

  587. Duration : 2 h 20 min

  588. Bit rate : 55 b/s

  589. Count of elements : 1637

  590. Stream size : 56.9 KiB (0%)

  591. Title : Latvian

  592. Language : Latvian

  593. Default : No

  594. Forced : No


  595. Text #25

  596. ID : 36

  597. Format : UTF-8

  598. Codec ID : S_TEXT/UTF8

  599. Codec ID/Info : UTF-8 Plain Text

  600. Duration : 2 h 20 min

  601. Bit rate : 54 b/s

  602. Count of elements : 1639

  603. Stream size : 55.9 KiB (0%)

  604. Title : Malay

  605. Language : Malay

  606. Default : No

  607. Forced : No


  608. Text #26

  609. ID : 37

  610. Format : UTF-8

  611. Codec ID : S_TEXT/UTF8

  612. Codec ID/Info : UTF-8 Plain Text

  613. Duration : 2 h 20 min

  614. Bit rate : 43 b/s

  615. Count of elements : 1649

  616. Stream size : 45.4 KiB (0%)

  617. Title : Chinese(Simplified)

  618. Language : Chinese

  619. Default : No

  620. Forced : No


  621. Text #27

  622. ID : 38

  623. Format : UTF-8

  624. Codec ID : S_TEXT/UTF8

  625. Codec ID/Info : UTF-8 Plain Text

  626. Duration : 2 h 20 min

  627. Bit rate : 45 b/s

  628. Count of elements : 1650

  629. Stream size : 46.9 KiB (0%)

  630. Title : Chinese(Traditional)

  631. Language : Chinese

  632. Default : No

  633. Forced : No


  634. Text #28

  635. ID : 39

  636. Format : UTF-8

  637. Codec ID : S_TEXT/UTF8

  638. Codec ID/Info : UTF-8 Plain Text

  639. Duration : 2 h 20 min

  640. Bit rate : 47 b/s

  641. Count of elements : 1650

  642. Stream size : 49.5 KiB (0%)

  643. Title : Chinese(Cantonese)

  644. Language : Chinese

  645. Default : No

  646. Forced : No


  647. Text #29

  648. ID : 40

  649. Format : UTF-8

  650. Codec ID : S_TEXT/UTF8

  651. Codec ID/Info : UTF-8 Plain Text

  652. Duration : 2 h 20 min

  653. Bit rate : 49 b/s

  654. Count of elements : 1442

  655. Stream size : 51.1 KiB (0%)

  656. Title : Norwegian

  657. Language : Norwegian

  658. Default : No

  659. Forced : No


  660. Text #30

  661. ID : 41

  662. Format : UTF-8

  663. Codec ID : S_TEXT/UTF8

  664. Codec ID/Info : UTF-8 Plain Text

  665. Duration : 2 h 20 min

  666. Bit rate : 47 b/s

  667. Count of elements : 1559

  668. Stream size : 48.8 KiB (0%)

  669. Title : Polish

  670. Language : Polish

  671. Default : No

  672. Forced : No


  673. Text #31

  674. ID : 42

  675. Format : UTF-8

  676. Codec ID : S_TEXT/UTF8

  677. Codec ID/Info : UTF-8 Plain Text

  678. Duration : 2 h 20 min

  679. Bit rate : 51 b/s

  680. Count of elements : 1623

  681. Stream size : 53.4 KiB (0%)

  682. Title : Portuguese

  683. Language : Portuguese

  684. Default : No

  685. Forced : No


  686. Text #32

  687. ID : 43

  688. Format : UTF-8

  689. Codec ID : S_TEXT/UTF8

  690. Codec ID/Info : UTF-8 Plain Text

  691. Duration : 2 h 20 min

  692. Bit rate : 48 b/s

  693. Count of elements : 1584

  694. Stream size : 50.0 KiB (0%)

  695. Title : Brazilian Portuguese

  696. Language : Portuguese

  697. Default : No

  698. Forced : No


  699. Text #33

  700. ID : 44

  701. Format : UTF-8

  702. Codec ID : S_TEXT/UTF8

  703. Codec ID/Info : UTF-8 Plain Text

  704. Duration : 2 h 20 min

  705. Bit rate : 82 b/s

  706. Count of elements : 1649

  707. Stream size : 84.9 KiB (0%)

  708. Title : Russian

  709. Language : Russian

  710. Default : No

  711. Forced : No


  712. Text #34

  713. ID : 45

  714. Format : UTF-8

  715. Codec ID : S_TEXT/UTF8

  716. Codec ID/Info : UTF-8 Plain Text

  717. Duration : 2 h 20 min

  718. Bit rate : 49 b/s

  719. Count of elements : 1631

  720. Stream size : 51.2 KiB (0%)

  721. Title : Slovak

  722. Language : Slovak

  723. Default : No

  724. Forced : No


  725. Text #35

  726. ID : 46

  727. Format : UTF-8

  728. Codec ID : S_TEXT/UTF8

  729. Codec ID/Info : UTF-8 Plain Text

  730. Duration : 2 h 20 min

  731. Bit rate : 42 b/s

  732. Count of elements : 1599

  733. Stream size : 44.0 KiB (0%)

  734. Title : Slovenian

  735. Language : Slovenian

  736. Default : No

  737. Forced : No


  738. Text #36

  739. ID : 47

  740. Format : UTF-8

  741. Codec ID : S_TEXT/UTF8

  742. Codec ID/Info : UTF-8 Plain Text

  743. Duration : 2 h 20 min

  744. Bit rate : 54 b/s

  745. Count of elements : 1641

  746. Stream size : 55.9 KiB (0%)

  747. Title : Spanish

  748. Language : Spanish

  749. Default : No

  750. Forced : No


  751. Text #37

  752. ID : 48

  753. Format : UTF-8

  754. Codec ID : S_TEXT/UTF8

  755. Codec ID/Info : UTF-8 Plain Text

  756. Duration : 2 h 20 min

  757. Bit rate : 61 b/s

  758. Count of elements : 1658

  759. Stream size : 63.4 KiB (0%)

  760. Title : European Spanish

  761. Language : Spanish

  762. Default : No

  763. Forced : No


  764. Text #38

  765. ID : 49

  766. Format : UTF-8

  767. Codec ID : S_TEXT/UTF8

  768. Codec ID/Info : UTF-8 Plain Text

  769. Duration : 2 h 20 min

  770. Bit rate : 52 b/s

  771. Count of elements : 1642

  772. Stream size : 54.3 KiB (0%)

  773. Title : Swedish

  774. Language : Swedish

  775. Default : No

  776. Forced : No


  777. Text #39

  778. ID : 50

  779. Format : UTF-8

  780. Codec ID : S_TEXT/UTF8

  781. Codec ID/Info : UTF-8 Plain Text

  782. Duration : 2 h 20 min

  783. Bit rate : 100 b/s

  784. Count of elements : 1649

  785. Stream size : 104 KiB (0%)

  786. Title : Thai

  787. Language : Thai

  788. Default : No

  789. Forced : No


  790. Text #40

  791. ID : 51

  792. Format : UTF-8

  793. Codec ID : S_TEXT/UTF8

  794. Codec ID/Info : UTF-8 Plain Text

  795. Duration : 2 h 20 min

  796. Bit rate : 53 b/s

  797. Count of elements : 1644

  798. Stream size : 54.8 KiB (0%)

  799. Title : Turkish

  800. Language : Turkish

  801. Default : No

  802. Forced : No


  803. Text #41

  804. ID : 52

  805. Format : UTF-8

  806. Codec ID : S_TEXT/UTF8

  807. Codec ID/Info : UTF-8 Plain Text

  808. Duration : 2 h 20 min

  809. Bit rate : 74 b/s

  810. Count of elements : 1645

  811. Stream size : 77.4 KiB (0%)

  812. Title : Ukrainian

  813. Language : Ukrainian

  814. Default : No

  815. Forced : No


  816. Text #42

  817. ID : 53

  818. Format : UTF-8

  819. Codec ID : S_TEXT/UTF8

  820. Codec ID/Info : UTF-8 Plain Text

  821. Duration : 2 h 20 min

  822. Bit rate : 64 b/s

  823. Count of elements : 1646

  824. Stream size : 67.1 KiB (0%)

  825. Title : Vietnamese

  826. Language : Vietnamese

  827. Default : No

  828. Forced : No


文件下载


除非特别注明,本文『谢里[简繁字幕]Cherry.2021.2160p.HDR.ATVP.WEB-DL.DDP5.1.Atmos.HEVC-迅雷下载 31.23GB』来源于互联网机器人自动抓取,非本站原创。 浮游电影网不对本文拥有版权,如有侵犯,请联系邮箱:fuyouu#yandex.com[#换成@]投诉。我们会在15个工作日内删除。 但烦请转载时请标明出处:“本文转载于『浮游电影网』,原文地址:https://www.fuyouu.com/13268.html

评论吧骚年!

发表你的见解   

昵称*

E-mail*(建议输入,以便收到博主回复的提示邮件)

验证码*

您可以使用eMule或eMule Mod(Windows)、aMule(Win、Linux、Mac)等软件下载eD2k链接。。
eMule收藏集(.emulecollection)文件是您选中的所有链接的列表文件。eMule可以直接下载它们。
按住SHIFT键选择可以选中多个选择框。
可用文件名和大小选择器来选择文件。
文件名选择器帮您根据文件名称或后缀来选择文件。不分大小写。
符号使用:
和:空格( )、+
不包含:-
或:|
转义:一对英文引号("");
匹配开头:^
匹配结尾:$
例如:
选中所有名称中包含有“eMule”或“0.49c”字眼,但不包含有“exe”字眼的:emule|0.49c -exe
选中所有名称的开头是“eMule”,结尾是“0.49c”的:^emule 0.49c$
选中所有名称中带有“eMule 0.49c”的(必须是“eMule 0.49c”,中间没有别的字符,不能是“eMule fake 0.49c”),需要转义:"emule 0.49c"
大小选择器帮您根据文件大小选择文件。