当前位置: 首页 >> 国产电视剧 >> 一起来看流星雨[全36集][国语中字.无水印][WEB-DL-MP4][2160P(4K)][Vampire][阿里云盘下载] >> 正文

一起来看流星雨[全36集][国语中字.无水印][WEB-DL-MP4][2160P(4K)][Vampire][阿里云盘下载]

2021年07月28日 09:39:40     电影发布:来源于网络     电影分类:国产电视剧     评论(0)    

一起来看流星雨[全36集][国语中字.无水印][WEB DL MP4][2160P(4K)][Vampire][阿里云盘下载] 爱情片 喜剧片 剧情片 国产电视剧  第1张


◎译 名 With The View of Meteor Shower

◎片 名 一起来看流星雨 / 流星雨

◎年 代 2009

◎产 地 中国大陆

◎类 别 剧情 / 喜剧 / 爱情

◎语 言 汉语普通话

◎上映日期 2009-08-08(中国大陆)

◎IMDb评分 5.5/10 from 24 users

◎IMDb链接 https://www.imdb.com/title/tt6686280

◎豆瓣评分 5.5/10 from 62750 users

◎豆瓣链接 https://movie.douban.com/subject/3546712

◎集 数 36

◎片 长 45分钟

◎导 演 丁仰国 Yang-Kuo Ting / 沈怡 Yi Shen

◎编 剧 娅子 Ya Zi / 于淼 Miao Yu / 王雪静 Xuejing Wang / 汪海林 Hailin Wang

◎主 演 郑爽 Shuang Zheng

张翰 Han Zhang

俞灏明 Haoming Yu

魏晨 Vision Wei

朱梓骁 Zixiao Zhu

彭杨 Yang Peng

肖涵 Han Xiao

陈一娜 Yina Chen

任珈锐 Jiarui Ren

殷叶子 Yezi Yin

宗峰岩 Fengyan Zong

黄志玮 Jerry Huang

陆虎 Hu Lu

楚轶男 Yinan Chu

李世鹏 Shipeng Li

徐志贺 Zhihe Xu

徐扬 Yang Xu

马剑琴 Jianqin Ma

米露 Lu Mi

边江 Jiang Bian

刘校妤 Xiaoyu Liu

王建新 Jianxin Wang

姜广涛 Guangtao Jiang


◎标 签 流星雨 | 青春 | 电视剧 | 雷 | 偶像剧 | 爱情 | 校园 | 山寨


◎简 介


楚雨荨(郑爽 饰)是一名品学兼优的女孩,理想是进入当地有名的贵族学院艾利斯顿商学院学习,但并不殷实的家境让这一理想变得难以实现。楚雨荨的舅舅四处筹钱终于成功把她送进了艾利斯顿。在艾利斯顿有四个贵族子弟慕容云海(张翰 饰)、端木磊(俞灏明 饰)、上官瑞谦(朱梓骁 饰)和叶烁(魏晨 饰),他们外形阳光帅气,家境富裕,被称为H4,成为全校大部分女生追捧的对象。楚雨荨对此却不以为然,这样的冷漠态度使得四个成天被人捧得很高的男生很吃惊,也因此结下了误会,处处互相较劲。然而,就在互相捉弄的过程中楚雨荨和四人竟然产生了亦敌亦友的感情,甚至和慕容云海和端木磊展开了一场三角恋……


一起来看流星雨[全36集][国语中字.无水印][WEB DL MP4][2160P(4K)][Vampire][阿里云盘下载] 爱情片 喜剧片 剧情片 国产电视剧  第2张一起来看流星雨[全36集][国语中字.无水印][WEB DL MP4][2160P(4K)][Vampire][阿里云盘下载] 爱情片 喜剧片 剧情片 国产电视剧  第3张


General

Complete name : 一起来看流星雨.With.The.View.of.Meteor.Shower.2009.EP36.2160P(4K).WEB-DL.H265.AAC-Vampire.mp4

Format : MPEG-4

Format profile : Base Media

Codec ID : isom (isom/iso2/mp41)

File size : 1.63 GiB

Duration : 46 min 23 s

Overall bit rate mode : Variable

Overall bit rate : 5 028 kb/s

Movie name : 一起来看流星雨/With.The.View.of.Meteor.Shower

Album : 国产网络剧集系列

Performer : Vampire制作分享作品

Genre : 中国大陆

Recorded date : 2009

Writing application : Lavf58.27.103

Cover : Yes

Comment : 警告:严禁将任何作品用于商业性质活动,所有制作作品仅限于测试宽带之用,请于下载后24小时内删除。本人不承担任何法律后果!喜欢本作品请购买正版!!!


Video

ID : 1

Format : HEVC

Format/Info : High Efficiency Video Coding

Format profile : Main@L5@Main

Codec ID : hev1

Codec ID/Info : High Efficiency Video Coding

Duration : 46 min 23 s

Bit rate : 4 832 kb/s

Width : 3 840 pixels

Height : 2 160 pixels

Display aspect ratio : 16:9

Frame rate mode : Constant

Frame rate : 25.000 FPS

Color space : YUV

Chroma subsampling : 4:2:0

Bit depth : 8 bits

Bits/(Pixel*Frame) : 0.023

Stream size : 1.57 GiB (96%)

Color range : Limited

Color primaries : BT.709

Transfer characteristics : BT.709

Matrix coefficients : BT.709

Codec configuration box : hvcC


Audio

ID : 2

Format : AAC LC

Format/Info : Advanced Audio Codec Low Complexity

Codec ID : mp4a-40-2

Duration : 46 min 23 s

Bit rate mode : Variable

Bit rate : 192 kb/s

Maximum bit rate : 196 kb/s

Channel(s) : 2 channels

Channel layout : L R

Sampling rate : 44.1 kHz

Frame rate : 43.066 FPS (1024 SPF)

Compression mode : Lossy

Stream size : 62.9 MiB (4%)

Default : Yes

Alternate group : 1


文件下载


除非特别注明,本文『一起来看流星雨[全36集][国语中字.无水印][WEB-DL-MP4][2160P(4K)][Vampire][阿里云盘下载]』来源于互联网机器人自动抓取,非本站原创。 浮游电影网不对本文拥有版权,如有侵犯,请联系邮箱:fuyouu#yandex.com[#换成@]投诉。我们会在15个工作日内删除。 但烦请转载时请标明出处:“本文转载于『浮游电影网』,原文地址:https://www.fuyouu.com/13267.html

评论吧骚年!

发表你的见解   

昵称*

E-mail*(建议输入,以便收到博主回复的提示邮件)

验证码*

您可以使用eMule或eMule Mod(Windows)、aMule(Win、Linux、Mac)等软件下载eD2k链接。。
eMule收藏集(.emulecollection)文件是您选中的所有链接的列表文件。eMule可以直接下载它们。
按住SHIFT键选择可以选中多个选择框。
可用文件名和大小选择器来选择文件。
文件名选择器帮您根据文件名称或后缀来选择文件。不分大小写。
符号使用:
和:空格( )、+
不包含:-
或:|
转义:一对英文引号("");
匹配开头:^
匹配结尾:$
例如:
选中所有名称中包含有“eMule”或“0.49c”字眼,但不包含有“exe”字眼的:emule|0.49c -exe
选中所有名称的开头是“eMule”,结尾是“0.49c”的:^emule 0.49c$
选中所有名称中带有“eMule 0.49c”的(必须是“eMule 0.49c”,中间没有别的字符,不能是“eMule fake 0.49c”),需要转义:"emule 0.49c"
大小选择器帮您根据文件大小选择文件。