当前位置: 首页 >> 欧美电影 >> 彗星来的那一夜[双语字幕]Coherence.2013.1080p.BluRay.x264.DTS-迅雷下载 5.10GB >> 正文

彗星来的那一夜[双语字幕]Coherence.2013.1080p.BluRay.x264.DTS-迅雷下载 5.10GB

2021年07月27日 09:26:55     电影发布:来源于网络     电影分类:欧美电影     评论(0)    

彗星来的那一夜[双语字幕]Coherence.2013.1080p.BluRay.x264.DTS 迅雷下载 5.10GB 悬疑片 科幻片 惊悚片 欧美电影  第1张

◎译 名 彗星来的那一夜 / 相干性 / 相干效应

◎片 名 Coherence

◎年 代 2013

◎产 地 美国 / 英国

◎类 别 科幻 / 悬疑 / 惊悚

◎语 言 英语

◎上映日期 2013-09-19(奇幻电影节) / 2014-08-06(美国)

◎IMDb链接 https://www.imdb.com/title/tt2866360/

◎豆瓣评分 8.5/10 (440604人评价)

◎豆瓣链接 https://movie.douban.com/subject/25807345/

◎片 长 89分钟

◎导 演 詹姆斯·沃德·布柯特 James Ward Byrkit (id:1342405)

◎编 剧 詹姆斯·沃德·布柯特 James Ward Byrkit (id:1342405)

亚历克斯·马努吉安 Alex Manugian (id:1343115)

◎演 员 艾米丽·芭尔多尼 Emily Baldoni (id:1343010)

莫瑞·史特林 Maury Sterling (id:1151824)

尼古拉斯·布兰登 Nicholas Brendon (id:1000085)

劳伦·斯卡法莉娅 Lorene Scafaria (id:1320877)

伊丽莎白·格瑞斯 Elizabeth Gracen (id:1056173)

雨果·阿姆斯特朗 Hugo Armstrong (id:1343120)

亚历克斯·马努吉安 Alex Manugian (id:1343115)

劳伦·马赫 Lauren Maher (id:1343121)

莱内·鲍萨格尔 Lene Bausager (id:1304389)

詹姆斯·沃德·布柯特 James Ward Byrkit (id:1342405)

亚历克斯·马努吉安 Alex Manugian (id:1343115)

克里斯汀·奥尔恩·戴鲁德 Kristin ?hrn Dyrud (id:1309107)

尼克·赛德勒 Nic Sadler (id:1022524)

詹姆斯·沃德·布柯特 James Ward Byrkit (id:1342405)

诺玛·李 Norma Lee (id:1289694)

维多利亚·伍德 Victoria Wood (id:1301232)

乔伊·萨帕塔 Joy Zapata (id:1301634)

杰西·波默罗伊 Jesse Pomeroy (id:1137035)

文森特·吉塞蒂 Vincent Guisetti (id:1285629)

◎标 签 科幻 / 悬疑 / 烧脑 / 平行世界 / 美国 / 时空 / 惊悚 / 人性

◎简 介

在一个静得有些诡异阴森的夜晚,年轻女子艾米丽(艾米丽·芭尔多尼 Emily Baldoni 饰)驱车来到朋友家参加聚会。此前她一边开车一边和男友打电话,然而通话突然中断,她的手机屏也莫名其妙出现裂痕。这一事件让艾米丽的心中升起隐隐不安,因为当晚一颗彗星刚好接近地球,一个 很久之前听过的传说使她对彗星的到来有着不祥的预感。稍后,朋友们落座,大家彼此交谈,叙说近况,虽然言语中有着许多莫名其妙、蹊跷反常的线索,然而均被一带而过。突然间,灯光尽灭。当光明重新来临时,众人发现附近只有一户人家还在亮灯,而亮灯人家里坐着的竟是……

本片荣获2014年阿姆斯特丹奇幻电影节黑郁金香奖。

◎获奖情况 (共3项)

第24届哥谭独立电影奖 (2014)

独立电影人奖(提名)

└──詹姆斯·沃德·布柯特 (id:1342405)

第1届豆瓣电影年度榜单 (2014)

10月最受关注电影(提名)

第5届豆瓣电影鑫像奖 (2015)

鑫豆单元 最佳影片(外语)(提名)

  1. ##### MediaInfo ######

  2. General

  3. Unique ID : 104234290401268558556356963490657808954 (0x4E6ACB4AE56F7FC5609C850E8C61323A)

  4. Complete name : Coherence.2013.1080p.BluRay.x264.DTS-10017@BBQDDQ.COM.mkv

  5. Format : Matroska

  6. Format version : Version 4

  7. File size : 5.10 GiB

  8. Duration : 1 h 27 min

  9. Overall bit rate : 8 309 kb/s

  10. Movie name : Coherence

  11. Encoded date : UTC 2021-07-23 17:59:48

  12. Writing application : mkvmerge v59.0.0 ('Shining Star') 64-bit

  13. Writing library : libebml v1.4.2 + libmatroska v1.6.4

  14. Cover : Yes

  15. Attachments : cover.jpg


  16. Video

  17. ID : 1

  18. Format : AVC

  19. Format/Info : Advanced Video Codec

  20. Format profile : High@L4.1

  21. Format settings : CABAC / 4 Ref Frames

  22. Format settings, CABAC : Yes

  23. Format settings, Reference frames : 4 frames

  24. Codec ID : V_MPEG4/ISO/AVC

  25. Duration : 1 h 27 min

  26. Bit rate : 6 664 kb/s

  27. Width : 1 916 pixels

  28. Height : 816 pixels

  29. Display aspect ratio : 2.35:1

  30. Frame rate mode : Constant

  31. Frame rate : 24.000 FPS

  32. Color space : YUV

  33. Chroma subsampling : 4:2:0

  34. Bit depth : 8 bits

  35. Scan type : Progressive

  36. Bits/(Pixel*Frame) : 0.178

  37. Stream size : 4.09 GiB (80%)

  38. Writing library : x264 core 164 r3065+55M 280faca t_mod_New [(8 & 10)-bit@all X86_64]

  39. Encoding settings : cabac=1 / ref=4 / deblock=1:-3:-3 / analyse=0x3:0x133 / me=umh / subme=11 / psy=1 / fade_compensate=0.00 / psy_rd=1.00:0.00 / mixed_ref=1 / me_range=48 / chroma_me=1 / trellis=2 / 8x8dct=1 / cqm=0 / deadzone=21,11 / fast_pskip=0 / chroma_qp_offset=-3 / threads=24 / lookahead_threads=6 / sliced_threads=0 / nr=0 / decimate=0 / interlaced=0 / NTMzNTQ= / bluray_compat=0 / constrained_intra=0 / fgo=0 / bframes=11 / b_pyramid=2 / b_adapt=2 / b_bias=0 / direct=3 / weightb=1 / open_gop=0 / weightp=2 / keyint=240 / keyint_min=1 / NTMzNTQ=uuDQuD2mJt9fsCf / scenecut=40 / intra_refresh=0 / rc_lookahead=72 / rc=crf / mbtree=0 / crf=18.0000 / qcomp=0.65 / qpmin=0:0:0 / qpmax=69:69:69 / qpstep=4 / vbv_maxrate=62500 / vbv_bufsize=78125 / crf_max=0.0 / nal_hrd=none / filler=0 / NTMzNTQ=LmsMAP37EqsCpk / ip_ratio=1.40 / pb_ratio=1.30 / aq=3:0.80 / aq-sensitivity=10.00 / aq-factor=1.00:1.00:1.00 / aq2=0 / aq3=0

  40. Default : Yes

  41. Forced : No


  42. Audio

  43. ID : 2

  44. ID in the original source medium : 4353 (0x1101)

  45. Format : DTS

  46. Format/Info : Digital Theater Systems

  47. Codec ID : A_DTS

  48. Duration : 1 h 27 min

  49. Bit rate mode : Constant

  50. Bit rate : 1 509 kb/s

  51. Channel(s) : 6 channels

  52. Channel layout : C L R Ls Rs LFE

  53. Sampling rate : 48.0 kHz

  54. Frame rate : 93.750 FPS (512 SPF)

  55. Bit depth : 16 bits

  56. Compression mode : Lossy

  57. Stream size : 948 MiB (18%)

  58. Language : English

  59. Default : Yes

  60. Forced : No

  61. Original source medium : Blu-ray


  62. Text #1

  63. ID : 3

  64. ID in the original source medium : 4612 (0x1204)

  65. Format : PGS

  66. Muxing mode : zlib

  67. Codec ID : S_HDMV/PGS

  68. Codec ID/Info : Picture based subtitle format used on BDs/HD-DVDs

  69. Duration : 1 h 27 min

  70. Bit rate : 73.5 kb/s

  71. Count of elements : 2048

  72. Stream size : 46.1 MiB (1%)

  73. Title : chs&eng

  74. Language : Chinese

  75. Default : Yes

  76. Forced : No

  77. Original source medium : Blu-ray


  78. Text #2

  79. ID : 4

  80. ID in the original source medium : 4613 (0x1205)

  81. Format : PGS

  82. Muxing mode : zlib

  83. Codec ID : S_HDMV/PGS

  84. Codec ID/Info : Picture based subtitle format used on BDs/HD-DVDs

  85. Duration : 1 h 27 min

  86. Bit rate : 73.9 kb/s

  87. Count of elements : 2048

  88. Stream size : 46.4 MiB (1%)

  89. Title : cht&eng

  90. Language : Chinese

  91. Default : No

  92. Forced : No

  93. Original source medium : Blu-ray


  94. Text #3

  95. ID : 5

  96. ID in the original source medium : 4614 (0x1206)

  97. Format : PGS

  98. Muxing mode : zlib

  99. Codec ID : S_HDMV/PGS

  100. Codec ID/Info : Picture based subtitle format used on BDs/HD-DVDs

  101. Duration : 1 h 27 min

  102. Bit rate : 43.5 kb/s

  103. Count of elements : 2047

  104. Stream size : 27.3 MiB (1%)

  105. Title : chs

  106. Language : Chinese

  107. Default : No

  108. Forced : No

  109. Original source medium : Blu-ray


  110. Text #4

  111. ID : 6

  112. ID in the original source medium : 4615 (0x1207)

  113. Format : PGS

  114. Muxing mode : zlib

  115. Codec ID : S_HDMV/PGS

  116. Codec ID/Info : Picture based subtitle format used on BDs/HD-DVDs

  117. Duration : 1 h 27 min

  118. Bit rate : 43.9 kb/s

  119. Count of elements : 2047

  120. Stream size : 27.6 MiB (1%)

  121. Title : cht

  122. Language : Chinese

  123. Default : No

  124. Forced : No

  125. Original source medium : Blu-ray


  126. Text #5

  127. ID : 7

  128. ID in the original source medium : 4611 (0x1203)

  129. Format : PGS

  130. Muxing mode : zlib

  131. Codec ID : S_HDMV/PGS

  132. Codec ID/Info : Picture based subtitle format used on BDs/HD-DVDs

  133. Duration : 1 h 27 min

  134. Bit rate : 57.9 kb/s

  135. Count of elements : 2043

  136. Stream size : 36.3 MiB (1%)

  137. Title : eng

  138. Language : English

  139. Default : No

  140. Forced : No

  141. Original source medium : Blu-ray


  142. Menu

  143. 00:00:00.000 : Chapter 01

  144. 00:09:38.125 : Chapter 02

  145. 00:22:28.958 : Chapter 03

  146. 00:32:46.083 : Chapter 04

  147. 00:41:56.166 : Chapter 05

  148. 00:56:21.875 : Chapter 06

  149. 01:06:47.000 : Chapter 07

  150. 01:16:53.416 : Chapter 08


文件下载


除非特别注明,本文『彗星来的那一夜[双语字幕]Coherence.2013.1080p.BluRay.x264.DTS-迅雷下载 5.10GB』来源于互联网机器人自动抓取,非本站原创。 浮游电影网不对本文拥有版权,如有侵犯,请联系邮箱:fuyouu#yandex.com[#换成@]投诉。我们会在15个工作日内删除。 但烦请转载时请标明出处:“本文转载于『浮游电影网』,原文地址:https://www.fuyouu.com/13260.html

评论吧骚年!

发表你的见解   

昵称*

E-mail*(建议输入,以便收到博主回复的提示邮件)

验证码*

您可以使用eMule或eMule Mod(Windows)、aMule(Win、Linux、Mac)等软件下载eD2k链接。。
eMule收藏集(.emulecollection)文件是您选中的所有链接的列表文件。eMule可以直接下载它们。
按住SHIFT键选择可以选中多个选择框。
可用文件名和大小选择器来选择文件。
文件名选择器帮您根据文件名称或后缀来选择文件。不分大小写。
符号使用:
和:空格( )、+
不包含:-
或:|
转义:一对英文引号("");
匹配开头:^
匹配结尾:$
例如:
选中所有名称中包含有“eMule”或“0.49c”字眼,但不包含有“exe”字眼的:emule|0.49c -exe
选中所有名称的开头是“eMule”,结尾是“0.49c”的:^emule 0.49c$
选中所有名称中带有“eMule 0.49c”的(必须是“eMule 0.49c”,中间没有别的字符,不能是“eMule fake 0.49c”),需要转义:"emule 0.49c"
大小选择器帮您根据文件大小选择文件。