当前位置: 首页 >> 欧美电影 >> 钢铁骑士[简繁字幕]Max.Steel.2016.1080p.BluRay.x264.DTS-迅雷下载 9.92GB >> 正文

钢铁骑士[简繁字幕]Max.Steel.2016.1080p.BluRay.x264.DTS-迅雷下载 9.92GB

2021年07月27日 09:23:59     电影发布:来源于网络     电影分类:欧美电影     评论(0)    

钢铁骑士[简繁字幕]Max.Steel.2016.1080p.BluRay.x264.DTS 迅雷下载 9.92GB 科幻片 冒险片 动作片 欧美电影  第1张

◎译 名 钢铁骑士 / 超能量战士(港) / 钢铁麦斯(台)

◎片 名 Max Steel

◎年 代 2016

◎产 地 美国

◎类 别 动作 / 科幻 / 冒险

◎语 言 英语

◎上映日期 2016-11-01(中国大陆) / 2016-10-14(美国)

◎IMDb链接 https://www.imdb.com/title/tt1472584/

◎豆瓣评分 3.7/10 (3948人评价)

◎豆瓣链接 https://movie.douban.com/subject/3863845/

◎片 长 92分钟

◎导 演 斯特瓦特·亨德尔 Stewart Hendler (id:1037199)

◎编 剧 克里斯托弗·约斯特 Christopher Yost (id:1033717)

◎演 员 本·温切尔 Ben Winchell (id:1323492)

乔什·布雷纳 Josh Brener (id:1339617)

玛丽亚·贝罗 Maria Bello (id:1002674)

安迪·加西亚 Andy Garcia (id:1002695)

安娜·维拉法妮 Ana Villafa?e (id:1363416)

麦克·道尔 Mike Doyle (id:1313409)

菲利普·德沃纳 Phillip DeVona (id:1080891)

比利·斯洛特 Billy Slaughter (id:1205890)

阿·米切尔 Al Mitchell (id:1363417)

Lawrence Kao Lawrence Kao (id:1363418)

布伦特·吉恩蒂尔 Brett Gentile (id:1198232)

Jahnee Wallace Jahnee Wallace (id:1363419)

阿维斯·玛丽·巴尼斯 Avis-Marie Barnes (id:1363421)

布兰登·拉瑞昆特 Brandon Larracuente (id:1363422)

Clayton Frey Clayton Frey (id:1363423)

Tim Greene Tim Greene (id:1047668)

梅根·海耶斯 Megan Hayes (id:1095403)

◎标 签 科幻 / 美国 / 动作 / 超级英雄 / 2016 / 奇幻 / 冒险 / 青少年

◎简 介

“钢铁骑士”曾是美泰一款风行全球的男孩人偶玩具,也曾被拍成电视系列动画片,此次真人电影版的故事是《雷神2:黑暗世界》(Thor: The Dark World)编剧克里斯托弗·约斯特(Christopher Yost)原创的。故事讲述16岁男孩麦克斯(Max McGrath)和母亲居住在一个小镇上,他的科学家父亲当年在他出生后不久就神秘死亡,麦克斯拥有一种他自己都无法控制的超强能量,直到遇到有着先进技术的外星人Steel后,才学会运用它,“钢铁骑士”就此诞生!

  1. ##### MediaInfo ######

  2. General

  3. Unique ID : 16958628853673463602763709113284727907 (0xCC21CF4F0E910AE0050736FF6989463)

  4. Complete name : [email protected]

  5. Format : Matroska

  6. Format version : Version 4

  7. File size : 9.92 GiB

  8. Duration : 1 h 32 min

  9. Overall bit rate : 15.4 Mb/s

  10. Movie name : Max Steel

  11. Encoded date : UTC 2021-07-23 03:54:49

  12. Writing application : mkvmerge v59.0.0 ('Shining Star') 64-bit

  13. Writing library : libebml v1.4.2 + libmatroska v1.6.4

  14. Cover : Yes

  15. Attachments : cover.jpg


  16. Video

  17. ID : 1

  18. Format : AVC

  19. Format/Info : Advanced Video Codec

  20. Format profile : [email protected]

  21. Format settings : CABAC / 4 Ref Frames

  22. Format settings, CABAC : Yes

  23. Format settings, Reference frames : 4 frames

  24. Codec ID : V_MPEG4/ISO/AVC

  25. Duration : 1 h 32 min

  26. Bit rate : 13.8 Mb/s

  27. Width : 1 920 pixels

  28. Height : 800 pixels

  29. Display aspect ratio : 2.40:1

  30. Frame rate mode : Constant

  31. Frame rate : 23.976 (24000/1001/53354) FPS

  32. Color space : YUV

  33. Chroma subsampling : 4:2:0

  34. Bit depth : 8 bits

  35. Scan type : Progressive

  36. Bits/(Pixel*Frame) : 0.375

  37. Stream size : 8.92 GiB (90%)

  38. Writing library : x264 core 163 r3059+79M f2a8266 t_mod_test_xavc [(8 & 10)[email protected] X86_64]

  39. Encoding settings : cabac=1 / ref=4 / deblock=1:-3:-3 / analyse=0x3:0x133 / me=umh / subme=11 / psy=1 / fade_compensate=0.00 / psy_rd=1.00:0.00 / mixed_ref=1 / me_range=48 / chroma_me=1 / trellis=2 / 8x8dct=1 / cqm=0 / deadzone=21,11 / fast_pskip=0 / chroma_qp_offset=-3 / threads=24 / lookahead_threads=6 / sliced_threads=0 / nr=0 / decimate=0 / interlaced=0 / NTMzNTQ= / bluray_compat=0 / constrained_intra=0 / fgo=0 / bframes=11 / b_pyramid=2 / b_adapt=2 / b_bias=0 / direct=3 / weightb=1 / open_gop=0 / weightp=2 / keyint=240 / keyint_min=1 / NTMzNTQ=uuDQuD2mJt9fsCf / scenecut=40 / intra_refresh=0 / rc_lookahead=72 / rc=crf / mbtree=0 / crf=16.5000 / qcomp=0.70 / qpmin=0:0:0 / qpmax=69:69:69 / qpstep=4 / vbv_maxrate=62500 / vbv_bufsize=78125 / crf_max=0.0 / nal_hrd=none / filler=0 / NTMzNTQ=LmsMAP37EqsCpk / ip_ratio=1.40 / pb_ratio=1.30 / aq=3:0.90 / aq-sensitivity=10.00 / aq-factor=1.00:1.00:1.00 / aq2=0 / aq3=0

  40. Language : English

  41. Default : Yes

  42. Forced : No


  43. Audio

  44. ID : 2

  45. ID in the original source medium : 4352 (0x1100)

  46. Format : DTS

  47. Format/Info : Digital Theater Systems

  48. Codec ID : A_DTS

  49. Duration : 1 h 32 min

  50. Bit rate mode : Constant

  51. Bit rate : 1 509 kb/s

  52. Channel(s) : 6 channels

  53. Channel layout : C L R Ls Rs LFE

  54. Sampling rate : 48.0 kHz

  55. Frame rate : 93.750 FPS (512 SPF)

  56. Bit depth : 24 bits

  57. Compression mode : Lossy

  58. Stream size : 998 MiB (10%)

  59. Language : English

  60. Default : Yes

  61. Forced : No

  62. Original source medium : Blu-ray


  63. Text #1

  64. ID : 3

  65. ID in the original source medium : 4610 (0x1202)

  66. Format : PGS

  67. Muxing mode : zlib

  68. Codec ID : S_HDMV/PGS

  69. Codec ID/Info : Picture based subtitle format used on BDs/HD-DVDs

  70. Duration : 1 h 26 min

  71. Bit rate : 23.4 kb/s

  72. Count of elements : 2365

  73. Stream size : 14.5 MiB (0%)

  74. Title : 简中

  75. Language : Chinese

  76. Default : Yes

  77. Forced : No

  78. Original source medium : Blu-ray


  79. Text #2

  80. ID : 4

  81. ID in the original source medium : 4611 (0x1203)

  82. Format : PGS

  83. Muxing mode : zlib

  84. Codec ID : S_HDMV/PGS

  85. Codec ID/Info : Picture based subtitle format used on BDs/HD-DVDs

  86. Duration : 1 h 26 min

  87. Bit rate : 23.7 kb/s

  88. Count of elements : 2365

  89. Stream size : 14.7 MiB (0%)

  90. Title : 繁中

  91. Language : Chinese

  92. Default : No

  93. Forced : No

  94. Original source medium : Blu-ray


  95. Text #3

  96. ID : 5

  97. ID in the original source medium : 4608 (0x1200)

  98. Format : PGS

  99. Muxing mode : zlib

  100. Codec ID : S_HDMV/PGS

  101. Codec ID/Info : Picture based subtitle format used on BDs/HD-DVDs

  102. Duration : 1 h 25 min

  103. Bit rate : 40.7 kb/s

  104. Count of elements : 2578

  105. Stream size : 24.9 MiB (0%)

  106. Title : 英语

  107. Language : English

  108. Default : No

  109. Forced : No

  110. Original source medium : Blu-ray


  111. Menu

  112. 00:00:00.000 : 第 01 章

  113. 00:04:43.283 : 第 02 章

  114. 00:10:19.493 : 第 03 章

  115. 00:15:11.911 : 第 04 章

  116. 00:19:45.142 : 第 05 章

  117. 00:23:05.342 : 第 06 章

  118. 00:26:47.147 : 第 07 章

  119. 00:30:20.276 : 第 08 章

  120. 00:35:22.495 : 第 09 章

  121. 00:38:15.668 : 第 10 章

  122. 00:43:01.287 : 第 11 章

  123. 00:48:07.509 : 第 12 章

  124. 00:54:16.378 : 第 13 章

  125. 01:00:07.061 : 第 14 章

  126. 01:03:43.361 : 第 15 章

  127. 01:08:38.197 : 第 16 章

  128. 01:13:22.940 : 第 17 章

  129. 01:19:59.628 : 第 18 章

  130. 01:24:29.981 : 第 19 章

  131. 01:26:45.825 : 第 20 章


文件下载


除非特别注明,本文『钢铁骑士[简繁字幕]Max.Steel.2016.1080p.BluRay.x264.DTS-迅雷下载 9.92GB』来源于互联网机器人自动抓取,非本站原创。 浮游电影网不对本文拥有版权,如有侵犯,请联系邮箱:fuyouu#yandex.com[#换成@]投诉。我们会在15个工作日内删除。 但烦请转载时请标明出处:“本文转载于『浮游电影网』,原文地址:https://www.fuyouu.com/13258.html

评论吧骚年!

发表你的见解   

昵称*

E-mail*(建议输入,以便收到博主回复的提示邮件)

验证码*

您可以使用eMule或eMule Mod(Windows)、aMule(Win、Linux、Mac)等软件下载eD2k链接。。
eMule收藏集(.emulecollection)文件是您选中的所有链接的列表文件。eMule可以直接下载它们。
按住SHIFT键选择可以选中多个选择框。
可用文件名和大小选择器来选择文件。
文件名选择器帮您根据文件名称或后缀来选择文件。不分大小写。
符号使用:
和:空格( )、+
不包含:-
或:|
转义:一对英文引号("");
匹配开头:^
匹配结尾:$
例如:
选中所有名称中包含有“eMule”或“0.49c”字眼,但不包含有“exe”字眼的:emule|0.49c -exe
选中所有名称的开头是“eMule”,结尾是“0.49c”的:^emule 0.49c$
选中所有名称中带有“eMule 0.49c”的(必须是“eMule 0.49c”,中间没有别的字符,不能是“eMule fake 0.49c”),需要转义:"emule 0.49c"
大小选择器帮您根据文件大小选择文件。