当前位置: 首页 >> 日韩电影 >> 哭声[中文字幕]The.Wailing.2016.1080p.BluRay.x264.DTS-迅雷下载 12.30GB >> 正文

哭声[中文字幕]The.Wailing.2016.1080p.BluRay.x264.DTS-迅雷下载 12.30GB

2021年07月27日 09:18:35     电影发布:来源于网络     电影分类:日韩电影     评论(0)    

哭声[中文字幕]The.Wailing.2016.1080p.BluRay.x264.DTS 迅雷下载 12.30GB 悬疑片 恐怖片 剧情片 日韩电影  第1张

◎译 名 哭声 / 哭城 / 谷城 / Goksung / The Strangers / The Wailing

◎片 名 ??

◎年 代 2016

◎产 地 韩国

◎类 别 剧情 / 悬疑 / 恐怖

◎语 言 韩语 / 日语

◎上映日期 2016-05-11(韩国) / 2016-05-18(戛纳电影节)

◎IMDb链接 https://www.imdb.com/title/tt5215952/

◎豆瓣评分 7.3/10 (109405人评价)

◎豆瓣链接 https://movie.douban.com/subject/25817534/

◎片 长 156分钟

◎导 演 罗泓轸 Hong-jin Na (id:1274385)

◎编 剧 罗泓轸 Hong-jin Na (id:1274385)

◎演 员 郭度沅 Do-Won Kwak (id:1320516)

黄政民 Jeong-min Hwang (id:1051046)

千禹熙 Cheon Woo-Hee (id:1331105)

国村隼 Jun Kunimura (id:1041791)

金基天 Ki-cheon Kim (id:1339796)

黄锡晶 Seok-Jeong Hwang (id:1352511)

李龙女 Yong-nyeo Lee (id:1357669)

金焕熙 Hwan-hee Kim (id:1360324)

李姃垠 Jung-eun Lee (id:1356030)

柳承龙 Seung-ryong Ryu (id:1316165)

张素妍 So-yeon Jang (id:1371638)

朴成妍 Seong-yeon Park (id:1394090)

全裴修 Bae-soo Jeon (id:1381316)

郑道元 Do-won Jung (id:1385927)

郑米楠 Mi-nam Jung (id:1398050)

郑美南 Mi-nam Jeong (id:1425290)

文昌吉 Moon Chang-gil (id:1390310)

孙康国 Kang-gook Son (id:1390278)

许真 Jin Heo (id:1379336)

金度允 Do-yoon Kim (id:1379543)

朴采益 Park Chae-ik (id:1386172)

金松日 Song-il Kim (id:1399222)

李仁喆 Lee In-chul (id:1380176)

李善熙 Seon-hee Lee (id:1435783)

张领圭 Young-gyu Jang (id:1329974)

金东汉 Dong-Han Kim (id:1366936)

姜其永 Dalpalan (id:1403066)

洪坰杓 Kyung-Pyo Hong (id:1286866)

蔡京华 Kyung-hwa Chae (id:1312176)

◎标 签 韩国 / 悬疑 / 惊悚 / 恐怖 / 宗教 / 犯罪 / 2016 / 剧情

◎简 介

在韩国某个偏远的山村,虽然这里生活并不富足,但长久以来安宁无忧,人们仿佛不知危险的逼近。直到某晚,村中突发杀人事件,彻底打破了这里的宁静。在村里担任警察的钟九(郭度沅 饰)与同侪迅速赶往现场调查,他初步推断这是一起恶性杀人事件,只不过当地人私下猜测,认为那个不知何时出现在村边树林的日本人(国村隼 饰)有最大嫌疑。这个日本人可能会某种巫术,他通过妖邪的手段将人诅咒之死。

在此之后,接二连三离奇非常却又有着共通之处的死亡事件接连发生,甚至连钟九的女儿也被置身危险之中。万般无奈之下,钟九只得求助巫师(黄正民 饰),以禳解降临在村人和女儿头上的可怕诅咒……

◎获奖情况 (共38项)

第37届韩国电影青龙奖 (2016)

最佳影片(提名)

└──罗泓轸 (id:1274385)

最佳导演

└──罗泓轸 (id:1274385)

最佳男主角(提名)

└──郭度沅 (id:1320516)

最佳男配角

└──国村隼 (id:1041791)

最佳女配角(提名)

└──千禹熙 (id:1331105)

最佳新人女演员(提名)

└──金焕熙 (id:1360324)

最佳剧本(提名)

└──罗泓轸 (id:1274385)

最佳剪辑

最佳美术(提名)

最佳配乐

最佳照明(提名)

第11届亚洲电影大奖 (2017)

最佳电影(提名)

最佳导演

└──罗泓轸 (id:1274385)

最佳男配角(提名)

└──国村隼 (id:1041791)

最佳音响(提名)

└──金东汉 (id:1366936)

第53届百想艺术大赏 (2017)

电影类 最佳影片

└──罗泓轸 (id:1274385)

电影类 最佳导演(提名)

└──罗泓轸 (id:1274385)

电影类 最佳男主角(提名)

└──郭度沅 (id:1320516)

电影类 最佳女配角(提名)

└──千禹熙 (id:1331105)

电影类 最佳新人女演员(提名)

└──金焕熙 (id:1360324)

电影类 最佳编剧(提名)

└──罗泓轸 (id:1274385)

第53届韩国电影大钟奖 (2016)

最佳影片(提名)

最佳导演(提名)

└──罗泓轸 (id:1274385)

最佳男主角(提名)

└──郭度沅 (id:1320516)

最佳男配角(提名)

└──黄政民 (id:1051046)

最佳女配角(提名)

└──千禹熙 (id:1331105)

最佳新人女演员

└──金焕熙 (id:1360324)

最佳剧本(提名)

└──罗泓轸 (id:1274385)

最佳摄影

└──洪坰杓 (id:1286866)

最佳剪辑

最佳美术(提名)

最佳音乐(提名)

最佳技术奖(提名)

最佳录音

最佳照明

最佳企划(提名)

第3届豆瓣电影年度榜单 (2016)

评分最高的韩国电影(提名)

评分最高的恐怖片(提名)

  1. ##### MediaInfo ######

  2. General

  3. Unique ID : 21807188128592119350494574422430636669 (0x1067E962ADDBF14993E96A3FC310DA7D)

  4. Complete name : [email protected]

  5. Format : Matroska

  6. Format version : Version 4

  7. File size : 12.3 GiB

  8. Duration : 2 h 36 min

  9. Overall bit rate : 11.3 Mb/s

  10. Movie name : The Wailing - Blu-ray?

  11. Encoded date : UTC 2021-07-22 10:07:14

  12. Writing application : mkvmerge v59.0.0 ('Shining Star') 64-bit

  13. Writing library : libebml v1.4.2 + libmatroska v1.6.4

  14. Cover : Yes

  15. Attachments : cover.jpg


  16. Video

  17. ID : 1

  18. Format : AVC

  19. Format/Info : Advanced Video Codec

  20. Format profile : [email protected]

  21. Format settings : CABAC / 4 Ref Frames

  22. Format settings, CABAC : Yes

  23. Format settings, Reference frames : 4 frames

  24. Codec ID : V_MPEG4/ISO/AVC

  25. Duration : 2 h 36 min

  26. Bit rate : 9 742 kb/s

  27. Width : 1 920 pixels

  28. Height : 800 pixels

  29. Display aspect ratio : 2.40:1

  30. Frame rate mode : Constant

  31. Frame rate : 24.000 FPS

  32. Color space : YUV

  33. Chroma subsampling : 4:2:0

  34. Bit depth : 8 bits

  35. Scan type : Progressive

  36. Bits/(Pixel*Frame) : 0.264

  37. Stream size : 10.6 GiB (86%)

  38. Writing library : x264 core 164 r3065+55M 280faca t_mod_New [(8 & 10)[email protected] X86_64]

  39. Encoding settings : cabac=1 / ref=4 / deblock=1:-3:-3 / analyse=0x3:0x133 / me=umh / subme=11 / psy=1 / fade_compensate=0.00 / psy_rd=1.00:0.00 / mixed_ref=1 / me_range=48 / chroma_me=1 / trellis=2 / 8x8dct=1 / cqm=0 / deadzone=21,11 / fast_pskip=0 / chroma_qp_offset=-3 / threads=24 / lookahead_threads=6 / sliced_threads=0 / nr=0 / decimate=0 / interlaced=0 / NTMzNTQ= / bluray_compat=0 / constrained_intra=0 / fgo=0 / bframes=11 / b_pyramid=2 / b_adapt=2 / b_bias=0 / direct=3 / weightb=1 / open_gop=0 / weightp=2 / keyint=240 / keyint_min=1 / NTMzNTQ=uuDQuD2mJt9fsCf / scenecut=40 / intra_refresh=0 / rc_lookahead=72 / rc=crf / mbtree=0 / crf=19.0000 / qcomp=0.65 / qpmin=0:0:0 / qpmax=69:69:69 / qpstep=4 / vbv_maxrate=62500 / vbv_bufsize=78125 / crf_max=0.0 / nal_hrd=none / filler=0 / NTMzNTQ=LmsMAP37EqsCpk / ip_ratio=1.40 / pb_ratio=1.30 / aq=3:0.70 / aq-sensitivity=10.00 / aq-factor=1.00:1.00:1.00 / aq2=0 / aq3=0

  40. Default : Yes

  41. Forced : No


  42. Audio

  43. ID : 2

  44. ID in the original source medium : 4352 (0x1100)

  45. Format : DTS

  46. Format/Info : Digital Theater Systems

  47. Codec ID : A_DTS

  48. Duration : 2 h 36 min

  49. Bit rate mode : Constant

  50. Bit rate : 1 509 kb/s

  51. Channel(s) : 6 channels

  52. Channel layout : C L R Ls Rs LFE

  53. Sampling rate : 48.0 kHz

  54. Frame rate : 93.750 FPS (512 SPF)

  55. Bit depth : 16 bits

  56. Compression mode : Lossy

  57. Stream size : 1.65 GiB (13%)

  58. Language : Korean

  59. Default : Yes

  60. Forced : No

  61. Original source medium : Blu-ray


  62. Text #1

  63. ID : 3

  64. ID in the original source medium : 4609 (0x1201)

  65. Format : PGS

  66. Muxing mode : zlib

  67. Codec ID : S_HDMV/PGS

  68. Codec ID/Info : Picture based subtitle format used on BDs/HD-DVDs

  69. Duration : 2 h 29 min

  70. Bit rate : 12.6 kb/s

  71. Count of elements : 2097

  72. Stream size : 13.4 MiB (0%)

  73. Title : chs

  74. Language : Chinese

  75. Default : Yes

  76. Forced : No

  77. Original source medium : Blu-ray


  78. Text #2

  79. ID : 4

  80. ID in the original source medium : 4610 (0x1202)

  81. Format : PGS

  82. Muxing mode : zlib

  83. Codec ID : S_HDMV/PGS

  84. Codec ID/Info : Picture based subtitle format used on BDs/HD-DVDs

  85. Duration : 2 h 29 min

  86. Bit rate : 12.7 kb/s

  87. Count of elements : 2097

  88. Stream size : 13.6 MiB (0%)

  89. Title : cht

  90. Language : Chinese

  91. Default : No

  92. Forced : No

  93. Original source medium : Blu-ray


  94. Text #3

  95. ID : 5

  96. ID in the original source medium : 4608 (0x1200)

  97. Format : PGS

  98. Muxing mode : zlib

  99. Codec ID : S_HDMV/PGS

  100. Codec ID/Info : Picture based subtitle format used on BDs/HD-DVDs

  101. Duration : 2 h 29 min

  102. Bit rate : 17.5 kb/s

  103. Count of elements : 2604

  104. Stream size : 18.7 MiB (0%)

  105. Title : eng

  106. Language : English

  107. Default : No

  108. Forced : No

  109. Original source medium : Blu-ray


  110. Menu

  111. 00:00:00.000 : Chapter 01

  112. 00:09:28.125 : Chapter 02

  113. 00:18:42.166 : Chapter 03

  114. 00:26:49.458 : Chapter 04

  115. 00:33:19.250 : Chapter 05

  116. 00:42:51.125 : Chapter 06

  117. 00:48:58.500 : Chapter 07

  118. 00:57:56.458 : Chapter 08

  119. 01:03:32.958 : Chapter 09

  120. 01:12:30.916 : Chapter 10

  121. 01:22:24.125 : Chapter 11

  122. 01:29:01.958 : Chapter 12

  123. 01:38:09.541 : Chapter 13

  124. 01:42:59.875 : Chapter 14

  125. 01:52:19.666 : Chapter 15

  126. 01:58:12.333 : Chapter 16

  127. 02:06:58.125 : Chapter 17

  128. 02:13:58.916 : Chapter 18

  129. 02:21:53.541 : Chapter 19

  130. 02:30:45.083 : Chapter 20



文件下载


除非特别注明,本文『哭声[中文字幕]The.Wailing.2016.1080p.BluRay.x264.DTS-迅雷下载 12.30GB』来源于互联网机器人自动抓取,非本站原创。 浮游电影网不对本文拥有版权,如有侵犯,请联系邮箱:fuyouu#yandex.com[#换成@]投诉。我们会在15个工作日内删除。 但烦请转载时请标明出处:“本文转载于『浮游电影网』,原文地址:https://www.fuyouu.com/13255.html

评论吧骚年!

发表你的见解   

昵称*

E-mail*(建议输入,以便收到博主回复的提示邮件)

验证码*

您可以使用eMule或eMule Mod(Windows)、aMule(Win、Linux、Mac)等软件下载eD2k链接。。
eMule收藏集(.emulecollection)文件是您选中的所有链接的列表文件。eMule可以直接下载它们。
按住SHIFT键选择可以选中多个选择框。
可用文件名和大小选择器来选择文件。
文件名选择器帮您根据文件名称或后缀来选择文件。不分大小写。
符号使用:
和:空格( )、+
不包含:-
或:|
转义:一对英文引号("");
匹配开头:^
匹配结尾:$
例如:
选中所有名称中包含有“eMule”或“0.49c”字眼,但不包含有“exe”字眼的:emule|0.49c -exe
选中所有名称的开头是“eMule”,结尾是“0.49c”的:^emule 0.49c$
选中所有名称中带有“eMule 0.49c”的(必须是“eMule 0.49c”,中间没有别的字符,不能是“eMule fake 0.49c”),需要转义:"emule 0.49c"
大小选择器帮您根据文件大小选择文件。