当前位置: 首页 >> 日韩电影 >> 爱,不爱[简繁字幕]Come.Rain,.Come.Shine.2011.1080p.WEB-DL.H265.AAC-迅雷下载 2.25GB >> 正文

爱,不爱[简繁字幕]Come.Rain,.Come.Shine.2011.1080p.WEB-DL.H265.AAC-迅雷下载 2.25GB

2021年07月27日 09:12:15     电影发布:来源于网络     电影分类:日韩电影     评论(0)    

爱,不爱[简繁字幕]Come.Rain,.Come.Shine.2011.1080p.WEB DL.H265.AAC 迅雷下载 2.25GB 爱情片 剧情片 日韩电影  第1张

◎译 名 爱,不爱 / 爱不爱 / 分手又如何 / Come Rain, Come Shine

◎片 名 ????, ???? ???

◎年 代 2011

◎产 地 韩国

◎类 别 剧情 / 爱情

◎语 言 韩语

◎上映日期 2011-03-03(韩国)

◎IMDb链接 https://www.imdb.com/title/tt1832453/

◎豆瓣评分 6.8/10 (17192人评价)

◎豆瓣链接 https://movie.douban.com/subject/5912977/

◎片 长 105分钟

◎导 演 李胤基 Yoon-ki Lee (id:1275997)

◎编 剧 李胤基 Yoon-ki Lee (id:1275997)

井上荒野 Areno Inoue (id:1332736)

◎演 员 玄彬 Hyun Bin (id:1028380)

林秀晶 Su-jeong Lim (id:1041084)

河正宇 Jung-woo Ha (id:1032680)

金智秀 Ji-su Kim (id:1042847)

郑碧雪 Lorna Tee (id:1380102)

◎标 签 玄彬 / 韩国电影 / 林秀晶 / 韩国 / 文艺 / 爱情 / 2011 / 电影

◎简 介

本片改编自日本女作家井上荒野的短篇小说《不能回来的猫》,入围2011柏林电影节主竞赛单元,两位主演都是无酬劳出演该片。

一对夫妻在经过五年的厮守之后,终于濒临分手的边缘。突然有一天妻子(林秀晶 饰)告诉丈夫(玄彬 饰),她有了别人。丈夫是个貌似沉默宽容的男人,他平静地接受了妻子外遇的事实,仍一如既往深情相待。一面帮妻子整理离去的行李,一面为她准备了美味的咖啡。他一边收拾着行李,一边希望也许就在这个短促而有限的空间,他们可以拾回往昔的记忆。然而,妻子却被丈夫的体贴搞得有点不耐烦,情感出现了波动。丈夫为分别前的最后一餐特别预定了餐厅,而为避雨四处躲藏的小猫又成为他试图挽留妻子的契机……外面的雨一直下个不停……最后他们真的会分手吗?

◎获奖情况 (共1项)

第61届柏林国际电影节 (2011)

金熊奖 最佳影片(提名)

└──李胤基 (id:1275997)

  1. ##### MediaInfo ######

  2. General

  3. Unique ID : 13520316279550726835555554466435537669 (0xA2BEB0F06CD71401C122B2814319B05)

  4. Complete name : Come.Rain,.Come.Shine.2011.1080p.WEB-DL.H265.AAC-10001@BBQDDQ.COM.mkv

  5. Format : Matroska

  6. Format version : Version 4

  7. File size : 2.25 GiB

  8. Duration : 1 h 45 min

  9. Overall bit rate : 3 066 kb/s

  10. Encoded date : UTC 2021-07-25 13:14:30

  11. Writing application : mkvmerge v56.1.0 ('My Friend') 64-bit

  12. Writing library : libebml v1.4.2 + libmatroska v1.6.4


  13. Video

  14. ID : 1

  15. Format : HEVC

  16. Format/Info : High Efficiency Video Coding

  17. Format profile : Main@L4@High

  18. Codec ID : V_MPEGH/ISO/HEVC

  19. Duration : 1 h 45 min

  20. Bit rate : 2 939 kb/s

  21. Width : 1 920 pixels

  22. Height : 1 040 pixels

  23. Display aspect ratio : 1.85:1

  24. Frame rate mode : Constant

  25. Frame rate : 25.000 FPS

  26. Color space : YUV

  27. Chroma subsampling : 4:2:0

  28. Bit depth : 8 bits

  29. Bits/(Pixel*Frame) : 0.059

  30. Stream size : 2.16 GiB (96%)

  31. Default : Yes

  32. Forced : No


  33. Audio

  34. ID : 2

  35. Format : AAC LC

  36. Format/Info : Advanced Audio Codec Low Complexity

  37. Codec ID : A_AAC-2

  38. Duration : 1 h 45 min

  39. Bit rate : 125 kb/s

  40. Channel(s) : 2 channels

  41. Channel layout : L R

  42. Sampling rate : 44.1 kHz

  43. Frame rate : 43.066 FPS (1024 SPF)

  44. Compression mode : Lossy

  45. Stream size : 93.6 MiB (4%)

  46. Language : Korean

  47. Default : Yes

  48. Forced : No


  49. Text #1

  50. ID : 3

  51. Format : UTF-8

  52. Codec ID : S_TEXT/UTF8

  53. Codec ID/Info : UTF-8 Plain Text

  54. Duration : 1 h 38 min

  55. Bit rate : 20 b/s

  56. Count of elements : 666

  57. Stream size : 14.8 KiB (0%)

  58. Title : Chinese Simplified

  59. Language : Chinese

  60. Default : Yes

  61. Forced : No


  62. Text #2

  63. ID : 4

  64. Format : UTF-8

  65. Codec ID : S_TEXT/UTF8

  66. Codec ID/Info : UTF-8 Plain Text

  67. Duration : 1 h 38 min

  68. Bit rate : 20 b/s

  69. Count of elements : 666

  70. Stream size : 14.8 KiB (0%)

  71. Title : Chinese Traditional

  72. Language : Chinese

  73. Default : No

  74. Forced : No


  75. Text #3

  76. ID : 5

  77. Format : UTF-8

  78. Codec ID : S_TEXT/UTF8

  79. Codec ID/Info : UTF-8 Plain Text

  80. Duration : 1 h 44 min

  81. Bit rate : 22 b/s

  82. Count of elements : 563

  83. Stream size : 17.1 KiB (0%)

  84. Title : English

  85. Language : English

  86. Default : No

  87. Forced : No


文件下载


除非特别注明,本文『爱,不爱[简繁字幕]Come.Rain,.Come.Shine.2011.1080p.WEB-DL.H265.AAC-迅雷下载 2.25GB』来源于互联网机器人自动抓取,非本站原创。 浮游电影网不对本文拥有版权,如有侵犯,请联系邮箱:fuyouu#yandex.com[#换成@]投诉。我们会在15个工作日内删除。 但烦请转载时请标明出处:“本文转载于『浮游电影网』,原文地址:https://www.fuyouu.com/13252.html

评论吧骚年!

发表你的见解   

昵称*

E-mail*(建议输入,以便收到博主回复的提示邮件)

验证码*

您可以使用eMule或eMule Mod(Windows)、aMule(Win、Linux、Mac)等软件下载eD2k链接。。
eMule收藏集(.emulecollection)文件是您选中的所有链接的列表文件。eMule可以直接下载它们。
按住SHIFT键选择可以选中多个选择框。
可用文件名和大小选择器来选择文件。
文件名选择器帮您根据文件名称或后缀来选择文件。不分大小写。
符号使用:
和:空格( )、+
不包含:-
或:|
转义:一对英文引号("");
匹配开头:^
匹配结尾:$
例如:
选中所有名称中包含有“eMule”或“0.49c”字眼,但不包含有“exe”字眼的:emule|0.49c -exe
选中所有名称的开头是“eMule”,结尾是“0.49c”的:^emule 0.49c$
选中所有名称中带有“eMule 0.49c”的(必须是“eMule 0.49c”,中间没有别的字符,不能是“eMule fake 0.49c”),需要转义:"emule 0.49c"
大小选择器帮您根据文件大小选择文件。