当前位置: 首页 >> 欧美电影 >> 明日赴死[双语字幕]She.Dies.Tomorrow.2020.1080p.BluRay.x264.DTS-迅雷下载 7.77GB >> 正文

明日赴死[双语字幕]She.Dies.Tomorrow.2020.1080p.BluRay.x264.DTS-迅雷下载 7.77GB

2021年07月27日 09:09:32     电影发布:来源于网络     电影分类:欧美电影     评论(0)    

明日赴死[双语字幕]She.Dies.Tomorrow.2020.1080p.BluRay.x264.DTS 迅雷下载 7.77GB 惊悚片 喜剧片 剧情片 欧美电影  第1张

◎译 名 明日赴死 / 她明天就死了 / 明天她死

◎片 名 She Dies Tomorrow

◎年 代 2020

◎产 地 美国

◎类 别 剧情 / 喜剧 / 惊悚

◎语 言 英语

◎上映日期 2020-07-31(美国)

◎IMDb链接 https://www.imdb.com/title/tt11614912/

◎豆瓣评分 4.0/10 (373人评价)

◎豆瓣链接 https://movie.douban.com/subject/34960048/

◎片 长 84分钟

◎导 演 艾米·西米茨 Amy Seimetz (id:1307449)

◎编 剧 艾米·西米茨 Amy Seimetz (id:1307449)

◎演 员 奥利维亚·泰勒·达德利 Olivia Taylor Dudley (id:1319558)

乔什·卢卡斯 Josh Lucas (id:1017919)

米歇尔·罗德里格兹 Michelle Rodriguez (id:1025174)

简·亚当斯 Jane Adams (id:1060981)

克里斯·梅西纳 Chris Messina (id:1022680)

凯蒂·阿赛尔顿 Katie Aselton (id:1220566)

凯特·林恩·希尔 Kate Lyn Sheil (id:1337414)

肯塔克·奥德利 Kentucker Audley (id:1355459)

滕德·艾德比佩 Tunde Adebimpe (id:1276821)

詹妮弗·金 Jennifer Kim (id:1324426)

杰伊·凯泰尔 Jay Keitel (id:1455825)

◎标 签 美国 / 2020 / 惊悚 / 美国电影 / 恐怖 / 喜剧 / 电影 / 米歇尔·罗德里格兹

◎简 介

艾米确信自己明天就要死,当她将死亡的幻觉传递给周围的人时,立刻开始失去了控制。

◎获奖情况 (共1项)

第36届美国独立精神奖 (2021)

最佳摄影(提名)

└──杰伊·凯泰尔 (id:1455825)

  1. ##### MediaInfo ######

  2. General

  3. Unique ID : 18391193809727062309405386502463406509 (0xDD603DCBFD77B6B37ACA5F2E185C1AD)

  4. Complete name : She.Dies.Tomorrow.2020.1080p.BluRay.x264.DTS-10017@BBQDDQ.COM.mkv

  5. Format : Matroska

  6. Format version : Version 4

  7. File size : 7.77 GiB

  8. Duration : 1 h 24 min

  9. Overall bit rate : 13.1 Mb/s

  10. Movie name : She dies tomorrow

  11. Encoded date : UTC 2021-07-23 17:57:51

  12. Writing application : mkvmerge v59.0.0 ('Shining Star') 64-bit

  13. Writing library : libebml v1.4.2 + libmatroska v1.6.4

  14. Cover : Yes

  15. Attachments : cover.jpg


  16. Video

  17. ID : 1

  18. Format : AVC

  19. Format/Info : Advanced Video Codec

  20. Format profile : High@L4.1

  21. Format settings : CABAC / 4 Ref Frames

  22. Format settings, CABAC : Yes

  23. Format settings, Reference frames : 4 frames

  24. Codec ID : V_MPEG4/ISO/AVC

  25. Duration : 1 h 24 min

  26. Bit rate : 11.6 Mb/s

  27. Width : 1 920 pixels

  28. Height : 1 080 pixels

  29. Display aspect ratio : 16:9

  30. Frame rate mode : Constant

  31. Frame rate : 23.976 (24000/1001/53354) FPS

  32. Color space : YUV

  33. Chroma subsampling : 4:2:0

  34. Bit depth : 8 bits

  35. Scan type : Progressive

  36. Bits/(Pixel*Frame) : 0.232

  37. Stream size : 6.85 GiB (88%)

  38. Writing library : x264 core 164 r3065+55M 280faca t_mod_New [(8 & 10)-bit@all X86_64]

  39. Encoding settings : cabac=1 / ref=4 / deblock=1:-3:-3 / analyse=0x3:0x133 / me=umh / subme=11 / psy=1 / fade_compensate=0.00 / psy_rd=1.00:0.00 / mixed_ref=1 / me_range=48 / chroma_me=1 / trellis=2 / 8x8dct=1 / cqm=0 / deadzone=21,11 / fast_pskip=0 / chroma_qp_offset=-3 / threads=24 / lookahead_threads=6 / sliced_threads=0 / nr=0 / decimate=0 / interlaced=0 / NTMzNTQ= / bluray_compat=0 / constrained_intra=0 / fgo=0 / bframes=11 / b_pyramid=2 / b_adapt=2 / b_bias=0 / direct=3 / weightb=1 / open_gop=0 / weightp=2 / keyint=240 / keyint_min=1 / NTMzNTQ=uuDQuD2mJt9fsCf / scenecut=40 / intra_refresh=0 / rc_lookahead=72 / rc=crf / mbtree=0 / crf=19.5000 / qcomp=0.65 / qpmin=0:0:0 / qpmax=69:69:69 / qpstep=4 / vbv_maxrate=62500 / vbv_bufsize=78125 / crf_max=0.0 / nal_hrd=none / filler=0 / NTMzNTQ=LmsMAP37EqsCpk / ip_ratio=1.40 / pb_ratio=1.30 / aq=3:0.80 / aq-sensitivity=10.00 / aq-factor=1.00:1.00:1.00 / aq2=0 / aq3=0

  40. Default : Yes

  41. Forced : No


  42. Audio

  43. ID : 2

  44. ID in the original source medium : 4353 (0x1101)

  45. Format : DTS

  46. Format/Info : Digital Theater Systems

  47. Codec ID : A_DTS

  48. Duration : 1 h 24 min

  49. Bit rate mode : Constant

  50. Bit rate : 1 509 kb/s

  51. Channel(s) : 6 channels

  52. Channel layout : C L R Ls Rs LFE

  53. Sampling rate : 48.0 kHz

  54. Frame rate : 93.750 FPS (512 SPF)

  55. Bit depth : 16 bits

  56. Compression mode : Lossy

  57. Stream size : 916 MiB (12%)

  58. Language : English

  59. Default : Yes

  60. Forced : No

  61. Original source medium : Blu-ray


  62. Text #1

  63. ID : 3

  64. ID in the original source medium : 4609 (0x1201)

  65. Format : PGS

  66. Muxing mode : zlib

  67. Codec ID : S_HDMV/PGS

  68. Codec ID/Info : Picture based subtitle format used on BDs/HD-DVDs

  69. Duration : 1 h 22 min

  70. Bit rate : 24.7 kb/s

  71. Count of elements : 1140

  72. Stream size : 14.6 MiB (0%)

  73. Title : chs&eng

  74. Language : Chinese

  75. Default : Yes

  76. Forced : No

  77. Original source medium : Blu-ray


  78. Text #2

  79. ID : 4

  80. ID in the original source medium : 4610 (0x1202)

  81. Format : PGS

  82. Muxing mode : zlib

  83. Codec ID : S_HDMV/PGS

  84. Codec ID/Info : Picture based subtitle format used on BDs/HD-DVDs

  85. Duration : 1 h 22 min

  86. Bit rate : 24.5 kb/s

  87. Count of elements : 1140

  88. Stream size : 14.5 MiB (0%)

  89. Title : cht&eng

  90. Language : Chinese

  91. Default : No

  92. Forced : No

  93. Original source medium : Blu-ray


  94. Text #3

  95. ID : 5

  96. ID in the original source medium : 4611 (0x1203)

  97. Format : PGS

  98. Muxing mode : zlib

  99. Codec ID : S_HDMV/PGS

  100. Codec ID/Info : Picture based subtitle format used on BDs/HD-DVDs

  101. Duration : 1 h 22 min

  102. Bit rate : 14.0 kb/s

  103. Count of elements : 1139

  104. Stream size : 8.24 MiB (0%)

  105. Title : chs

  106. Language : Chinese

  107. Default : No

  108. Forced : No

  109. Original source medium : Blu-ray


  110. Text #4

  111. ID : 6

  112. ID in the original source medium : 4612 (0x1204)

  113. Format : PGS

  114. Muxing mode : zlib

  115. Codec ID : S_HDMV/PGS

  116. Codec ID/Info : Picture based subtitle format used on BDs/HD-DVDs

  117. Duration : 1 h 22 min

  118. Bit rate : 14.2 kb/s

  119. Count of elements : 1139

  120. Stream size : 8.40 MiB (0%)

  121. Title : cht

  122. Language : Chinese

  123. Default : No

  124. Forced : No

  125. Original source medium : Blu-ray


  126. Text #5

  127. ID : 7

  128. Format : UTF-8

  129. Codec ID : S_TEXT/UTF8

  130. Codec ID/Info : UTF-8 Plain Text

  131. Duration : 1 h 21 min

  132. Bit rate : 35 b/s

  133. Count of elements : 781

  134. Stream size : 20.9 KiB (0%)

  135. Title : eng

  136. Language : English

  137. Default : No

  138. Forced : No


  139. Menu

  140. 00:00:00.000 : Chapter 01

  141. 00:07:02.505 : Chapter 02

  142. 00:13:04.742 : Chapter 03

  143. 00:20:50.832 : Chapter 04

  144. 00:28:10.689 : Chapter 05

  145. 00:33:44.772 : Chapter 06

  146. 00:40:34.265 : Chapter 07

  147. 00:47:17.584 : Chapter 08

  148. 00:56:25.131 : Chapter 09

  149. 01:02:32.999 : Chapter 10

  150. 01:12:28.969 : Chapter 11

  151. 01:20:32.285 : Chapter 12



文件下载


除非特别注明,本文『明日赴死[双语字幕]She.Dies.Tomorrow.2020.1080p.BluRay.x264.DTS-迅雷下载 7.77GB』来源于互联网机器人自动抓取,非本站原创。 浮游电影网不对本文拥有版权,如有侵犯,请联系邮箱:fuyouu#yandex.com[#换成@]投诉。我们会在15个工作日内删除。 但烦请转载时请标明出处:“本文转载于『浮游电影网』,原文地址:https://www.fuyouu.com/13250.html

评论吧骚年!

发表你的见解   

昵称*

E-mail*(建议输入,以便收到博主回复的提示邮件)

验证码*

您可以使用eMule或eMule Mod(Windows)、aMule(Win、Linux、Mac)等软件下载eD2k链接。。
eMule收藏集(.emulecollection)文件是您选中的所有链接的列表文件。eMule可以直接下载它们。
按住SHIFT键选择可以选中多个选择框。
可用文件名和大小选择器来选择文件。
文件名选择器帮您根据文件名称或后缀来选择文件。不分大小写。
符号使用:
和:空格( )、+
不包含:-
或:|
转义:一对英文引号("");
匹配开头:^
匹配结尾:$
例如:
选中所有名称中包含有“eMule”或“0.49c”字眼,但不包含有“exe”字眼的:emule|0.49c -exe
选中所有名称的开头是“eMule”,结尾是“0.49c”的:^emule 0.49c$
选中所有名称中带有“eMule 0.49c”的(必须是“eMule 0.49c”,中间没有别的字符,不能是“eMule fake 0.49c”),需要转义:"emule 0.49c"
大小选择器帮您根据文件大小选择文件。