当前位置: 首页 >> 国产电影 >> 追球[国语音轨]Football.Dream.2021.2160p.WEB-DL.H265.AAC-迅雷下载 9.90GB >> 正文

追球[国语音轨]Football.Dream.2021.2160p.WEB-DL.H265.AAC-迅雷下载 9.90GB

2021年07月26日 10:00:14     电影发布:来源于网络     电影分类:国产电影     评论(0)    

追球[国语音轨]Football.Dream.2021.2160p.WEB DL.H265.AAC 迅雷下载 9.90GB 爱情片 国产电影  第1张

◎译 名 追球

◎年 代 2021

◎产 地 中国大陆

◎类 别 爱情

◎语 言 汉语普通话

◎上映日期 2021-06-04(中国大陆)

◎IMDb链接 https://www.imdb.com/title//

◎豆瓣链接 https://movie.douban.com/subject/35299831/

◎片 长 92分钟

◎导 演 崔可昂 Keang Cui (id:1450766)

◎演 员 张雪迎 Xueying Zhang (id:1326897)

杨骐嘉 Qijia Yang (id:1450767)

王康 Kang Wang (id:1378195)

秦琦杰 Qijie Qin (id:1450768)

王小米 Xiaomi Wang (id:1343963)

王明帅 Mingshuai Wang (id:1356017)

◎标 签 张雪迎 / 足球 / 爱情 / 回忆青葱岁月 / 蒙自一中 / 国产 / 青春 / 2021等评分

◎简 介

那些年,球场上的你,球场外的我……足球少年、青涩少女、校园琴声、赛场呼啸,一幅幅充满回忆杀的画面,一个深情又燃情的故事。左脚追爱,右脚追球。进不进球不重要,有没有后来不重要,重要的是——青春来过,爱情来过。

  1. ##### MediaInfo ######

  2. General

  3. Complete name : 追球[email protected]

  4. Format : MPEG-4

  5. Format profile : Base Media

  6. Codec ID : isom (isom/iso2/mp41)

  7. File size : 9.90 GiB

  8. Duration : 1 h 33 min

  9. Overall bit rate : 15.1 Mb/s

  10. Writing application : OurTV Multimedia Platform


  11. Video

  12. ID : 1

  13. Format : HEVC

  14. Format/Info : High Efficiency Video Coding

  15. Format profile : [email protected]@High

  16. Codec ID : hev1

  17. Codec ID/Info : High Efficiency Video Coding

  18. Duration : 1 h 33 min

  19. Bit rate : 14.9 Mb/s

  20. Width : 4 096 pixels

  21. Height : 1 706 pixels

  22. Display aspect ratio : 2.40:1

  23. Original display aspect ratio : 2.40:1

  24. Frame rate mode : Variable

  25. Frame rate : 25.000 FPS

  26. Minimum frame rate : 25.000 FPS

  27. Maximum frame rate : 90 000.000 FPS

  28. Color space : YUV

  29. Chroma subsampling : 4:2:0

  30. Bit depth : 8 bits

  31. Bits/(Pixel*Frame) : 0.085

  32. Stream size : 9.77 GiB (99%)

  33. Codec configuration box : hvcC


  34. Audio

  35. ID : 2

  36. Format : AAC LC

  37. Format/Info : Advanced Audio Codec Low Complexity

  38. Codec ID : mp4a-40-2

  39. Duration : 1 h 33 min

  40. Bit rate mode : Constant

  41. Bit rate : 192 kb/s

  42. Channel(s) : 2 channels

  43. Channel layout : L R

  44. Sampling rate : 44.1 kHz

  45. Frame rate : 43.066 FPS (1024 SPF)

  46. Compression mode : Lossy

  47. Stream size : 127 MiB (1%)

  48. Title : 国语AAC2.0

  49. Language : Chinese

  50. Default : Yes

  51. Alternate group : 1



文件下载


除非特别注明,本文『追球[国语音轨]Football.Dream.2021.2160p.WEB-DL.H265.AAC-迅雷下载 9.90GB』来源于互联网机器人自动抓取,非本站原创。 浮游电影网不对本文拥有版权,如有侵犯,请联系邮箱:fuyouu#yandex.com[#换成@]投诉。我们会在15个工作日内删除。 但烦请转载时请标明出处:“本文转载于『浮游电影网』,原文地址:https://www.fuyouu.com/13247.html

评论吧骚年!

发表你的见解   

昵称*

E-mail*(建议输入,以便收到博主回复的提示邮件)

验证码*

您可以使用eMule或eMule Mod(Windows)、aMule(Win、Linux、Mac)等软件下载eD2k链接。。
eMule收藏集(.emulecollection)文件是您选中的所有链接的列表文件。eMule可以直接下载它们。
按住SHIFT键选择可以选中多个选择框。
可用文件名和大小选择器来选择文件。
文件名选择器帮您根据文件名称或后缀来选择文件。不分大小写。
符号使用:
和:空格( )、+
不包含:-
或:|
转义:一对英文引号("");
匹配开头:^
匹配结尾:$
例如:
选中所有名称中包含有“eMule”或“0.49c”字眼,但不包含有“exe”字眼的:emule|0.49c -exe
选中所有名称的开头是“eMule”,结尾是“0.49c”的:^emule 0.49c$
选中所有名称中带有“eMule 0.49c”的(必须是“eMule 0.49c”,中间没有别的字符,不能是“eMule fake 0.49c”),需要转义:"emule 0.49c"
大小选择器帮您根据文件大小选择文件。