当前位置: 首页 >> 欧美电影 >> 血色天劫[简繁字幕]Blood.Red.Sky.2021.1080p.NF.WEB-DL.DDP5.1.x264-迅雷下载 9.38GB >> 正文

血色天劫[简繁字幕]Blood.Red.Sky.2021.1080p.NF.WEB-DL.DDP5.1.x264-迅雷下载 9.38GB

2021年07月25日 10:35:31     电影发布:来源于网络     电影分类:欧美电影     评论(0)    

血色天劫[简繁字幕]Blood.Red.Sky.2021.1080p.NF.WEB DL.DDP5.1.x264 迅雷下载 9.38GB 恐怖片 惊悚片 动作片 欧美电影  第1张

◎译 名 血色天劫 / 血红天空 / 血色天空 / Blood Air

◎片 名 Blood Red Sky

◎年 代 2021

◎产 地 德国 / 美国

◎类 别 动作 / 惊悚 / 恐怖

◎语 言 德语 / 英语

◎上映日期 2021-07-24(德国)

◎IMDb链接 https://www.imdb.com/title/tt6402468/

◎豆瓣评分 6.5/10 (377人评价)

◎豆瓣链接 https://movie.douban.com/subject/27179288/

◎导 演 彼得·图万斯 Peter Thorwarth (id:1019364)

◎编 剧 彼得·图万斯 Peter Thorwarth (id:1019364)

Stefan Holtz Stefan Holtz (id:1030400)

◎演 员 佩莉·鲍麦斯特 Peri Baumeister (id:1374094)

格拉汉姆·麦克泰维什 Graham McTavish (id:1323191)

多米尼克·珀塞尔 Dominic Purcell (id:1004605)

罗兰·默勒 Roland M?ller (id:1334238)

亚历山大·谢尔 Alexander Scheer (id:1146578)

奇迪·阿朱福 Chidi Ajufo (id:1430218)

吉姆·海伊 Jim High (id:1345207)

Leonie Brill (id:1258805)

戈登·布朗 Gordon Brown (id:1331763)

凯斯·塞蒂 Kais Setti (id:1414764)

凯·伊沃·保利兹 Kai Ivo Baulitz (id:1063816)

Ralph Gassmann Ralph Gassmann (id:1202858)

欧嘉·柯瑞兰寇 Olga Kurylenko (id:1035654)

莫里兹·布雷多 Moritz Bleibtreu (id:1022809)

◎标 签 惊悚 / Netflix / 恐怖 / 2021 / 美国 / 动作 / 犯罪 / 网飞亚马逊迪士尼等

◎简 介

恐怖分子企图劫持横越大西洋的夜间班机,身怀怪病的女子因而被迫亲上火线。为了保护儿子,她必须让黑暗的祕密曝光,释放出她一直设法压抑在体内的怪物。

  1. ##### MediaInfo ######

  2. General

  3. Unique ID : 118572765531743673664135838940704644710 (0x593448B26E4E421B9AEAC4B12C5D9E66)

  4. Complete name : [email protected]mkv

  5. Format : Matroska

  6. Format version : Version 4

  7. File size : 9.38 GiB

  8. Duration : 2 h 3 min

  9. Overall bit rate mode : Variable

  10. Overall bit rate : 10.9 Mb/s

  11. Encoded date : UTC 2021-07-23 08:19:14

  12. Writing application : mkvmerge v44.0.0 ('Domino') 64-bit

  13. Writing library : libebml v1.3.10 + libmatroska v1.5.2


  14. Video

  15. ID : 1

  16. Format : AVC

  17. Format/Info : Advanced Video Codec

  18. Format profile : [email protected]

  19. Format settings : CABAC / 3 Ref Frames

  20. Format settings, CABAC : Yes

  21. Format settings, Reference frames : 3 frames

  22. Codec ID : V_MPEG4/ISO/AVC

  23. Duration : 2 h 3 min

  24. Bit rate mode : Variable

  25. Bit rate : 1 934 kb/s

  26. Nominal bit rate : 2 260 kb/s

  27. Maximum bit rate : 3 390 kb/s

  28. Width : 1 920 pixels

  29. Height : 1 080 pixels

  30. Display aspect ratio : 16:9

  31. Frame rate mode : Constant

  32. Frame rate : 25.000 FPS

  33. Color space : YUV

  34. Chroma subsampling : 4:2:0

  35. Bit depth : 8 bits

  36. Scan type : Progressive

  37. Bits/(Pixel*Frame) : 0.037

  38. Stream size : 1.66 GiB (18%)

  39. Writing library : x264 core 148 r2722 1b0121b

  40. Encoding settings : cabac=1 / ref=3 / deblock=1:0:0 / analyse=0x1:0x111 / me=umh / subme=10 / psy=1 / psy_rd=1.00:0.00 / mixed_ref=1 / me_range=24 / chroma_me=1 / trellis=2 / 8x8dct=0 / cqm=0 / deadzone=21,11 / fast_pskip=1 / chroma_qp_offset=-2 / threads=8 / lookahead_threads=1 / sliced_threads=0 / nr=0 / decimate=1 / interlaced=0 / NTMzNTQ= / bluray_compat=0 / stitchable=1 / constrained_intra=0 / bframes=2 / b_pyramid=0 / b_adapt=2 / b_bias=0 / direct=3 / weightb=1 / open_gop=0 / weightp=2 / keyint=250 / keyint_min=25 / scenecut=0 / intra_refresh=0 / rc_lookahead=50 / rc=2pass / mbtree=1 / bitrate=2260 / ratetol=1.0 / qcomp=0.50 / qpmin=6 / qpmax=51 / qpstep=4 / cplxblur=20.0 / qblur=0.5 / vbv_maxrate=3390 / vbv_bufsize=4520 / nal_hrd=vbr / filler=0 / NTMzNTQ=LmsMAP37EqsCpk / ip_ratio=1.40 / aq=1:1.00

  41. Default : Yes

  42. Forced : No


  43. Audio #1

  44. ID : 2

  45. Format : E-AC-3

  46. Format/Info : Enhanced AC-3

  47. Commercial name : Dolby Digital Plus

  48. Codec ID : A_EAC3

  49. Duration : 2 h 3 min

  50. Bit rate mode : Constant

  51. Bit rate : 640 kb/s

  52. Channel(s) : 6 channels

  53. Channel layout : L R C LFE Ls Rs

  54. Sampling rate : 48.0 kHz

  55. Frame rate : 31.250 FPS (1536 SPF)

  56. Compression mode : Lossy

  57. Stream size : 564 MiB (6%)

  58. Title : German

  59. Language : German

  60. Service kind : Complete Main

  61. Default : Yes

  62. Forced : No


  63. Audio #2

  64. ID : 3

  65. Format : E-AC-3

  66. Format/Info : Enhanced AC-3

  67. Commercial name : Dolby Digital Plus

  68. Codec ID : A_EAC3

  69. Duration : 2 h 3 min

  70. Bit rate mode : Constant

  71. Bit rate : 640 kb/s

  72. Channel(s) : 6 channels

  73. Channel layout : L R C LFE Ls Rs

  74. Sampling rate : 48.0 kHz

  75. Frame rate : 31.250 FPS (1536 SPF)

  76. Compression mode : Lossy

  77. Stream size : 564 MiB (6%)

  78. Title : English

  79. Language : English

  80. Service kind : Complete Main

  81. Default : No

  82. Forced : No


  83. Audio #3

  84. ID : 4

  85. Format : E-AC-3

  86. Format/Info : Enhanced AC-3

  87. Commercial name : Dolby Digital Plus

  88. Codec ID : A_EAC3

  89. Duration : 2 h 3 min

  90. Bit rate mode : Constant

  91. Bit rate : 640 kb/s

  92. Channel(s) : 6 channels

  93. Channel layout : L R C LFE Ls Rs

  94. Sampling rate : 48.0 kHz

  95. Frame rate : 31.250 FPS (1536 SPF)

  96. Compression mode : Lossy

  97. Stream size : 564 MiB (6%)

  98. Title : Czech

  99. Language : Czech

  100. Service kind : Complete Main

  101. Default : No

  102. Forced : No


  103. Audio #4

  104. ID : 5

  105. Format : E-AC-3

  106. Format/Info : Enhanced AC-3

  107. Commercial name : Dolby Digital Plus

  108. Codec ID : A_EAC3

  109. Duration : 2 h 3 min

  110. Bit rate mode : Constant

  111. Bit rate : 640 kb/s

  112. Channel(s) : 6 channels

  113. Channel layout : L R C LFE Ls Rs

  114. Sampling rate : 48.0 kHz

  115. Frame rate : 31.250 FPS (1536 SPF)

  116. Compression mode : Lossy

  117. Stream size : 564 MiB (6%)

  118. Title : French

  119. Language : French

  120. Service kind : Complete Main

  121. Default : No

  122. Forced : No


  123. Audio #5

  124. ID : 6

  125. Format : E-AC-3

  126. Format/Info : Enhanced AC-3

  127. Commercial name : Dolby Digital Plus

  128. Codec ID : A_EAC3

  129. Duration : 2 h 3 min

  130. Bit rate mode : Constant

  131. Bit rate : 640 kb/s

  132. Channel(s) : 6 channels

  133. Channel layout : L R C LFE Ls Rs

  134. Sampling rate : 48.0 kHz

  135. Frame rate : 31.250 FPS (1536 SPF)

  136. Compression mode : Lossy

  137. Stream size : 564 MiB (6%)

  138. Title : Hungarian

  139. Language : Hungarian

  140. Service kind : Complete Main

  141. Default : No

  142. Forced : No


  143. Audio #6

  144. ID : 7

  145. Format : E-AC-3

  146. Format/Info : Enhanced AC-3

  147. Commercial name : Dolby Digital Plus

  148. Codec ID : A_EAC3

  149. Duration : 2 h 3 min

  150. Bit rate mode : Constant

  151. Bit rate : 640 kb/s

  152. Channel(s) : 6 channels

  153. Channel layout : L R C LFE Ls Rs

  154. Sampling rate : 48.0 kHz

  155. Frame rate : 31.250 FPS (1536 SPF)

  156. Compression mode : Lossy

  157. Stream size : 564 MiB (6%)

  158. Title : Italian

  159. Language : Italian

  160. Service kind : Complete Main

  161. Default : No

  162. Forced : No


  163. Audio #7

  164. ID : 8

  165. Format : E-AC-3

  166. Format/Info : Enhanced AC-3

  167. Commercial name : Dolby Digital Plus

  168. Codec ID : A_EAC3

  169. Duration : 2 h 3 min

  170. Bit rate mode : Constant

  171. Bit rate : 640 kb/s

  172. Channel(s) : 6 channels

  173. Channel layout : L R C LFE Ls Rs

  174. Sampling rate : 48.0 kHz

  175. Frame rate : 31.250 FPS (1536 SPF)

  176. Compression mode : Lossy

  177. Stream size : 564 MiB (6%)

  178. Title : Japanese

  179. Language : Japanese

  180. Service kind : Complete Main

  181. Default : No

  182. Forced : No


  183. Audio #8

  184. ID : 9

  185. Format : E-AC-3

  186. Format/Info : Enhanced AC-3

  187. Commercial name : Dolby Digital Plus

  188. Codec ID : A_EAC3

  189. Duration : 2 h 3 min

  190. Bit rate mode : Constant

  191. Bit rate : 640 kb/s

  192. Channel(s) : 6 channels

  193. Channel layout : L R C LFE Ls Rs

  194. Sampling rate : 48.0 kHz

  195. Frame rate : 31.250 FPS (1536 SPF)

  196. Compression mode : Lossy

  197. Stream size : 564 MiB (6%)

  198. Title : Polish

  199. Language : Polish

  200. Service kind : Complete Main

  201. Default : No

  202. Forced : No


  203. Audio #9

  204. ID : 10

  205. Format : E-AC-3

  206. Format/Info : Enhanced AC-3

  207. Commercial name : Dolby Digital Plus

  208. Codec ID : A_EAC3

  209. Duration : 2 h 3 min

  210. Bit rate mode : Constant

  211. Bit rate : 640 kb/s

  212. Channel(s) : 6 channels

  213. Channel layout : L R C LFE Ls Rs

  214. Sampling rate : 48.0 kHz

  215. Frame rate : 31.250 FPS (1536 SPF)

  216. Compression mode : Lossy

  217. Stream size : 564 MiB (6%)

  218. Title : Brazilian Portuguese

  219. Language : Portuguese

  220. Service kind : Complete Main

  221. Default : No

  222. Forced : No


  223. Audio #10

  224. ID : 11

  225. Format : E-AC-3

  226. Format/Info : Enhanced AC-3

  227. Commercial name : Dolby Digital Plus

  228. Codec ID : A_EAC3

  229. Duration : 2 h 3 min

  230. Bit rate mode : Constant

  231. Bit rate : 640 kb/s

  232. Channel(s) : 6 channels

  233. Channel layout : L R C LFE Ls Rs

  234. Sampling rate : 48.0 kHz

  235. Frame rate : 31.250 FPS (1536 SPF)

  236. Compression mode : Lossy

  237. Stream size : 564 MiB (6%)

  238. Title : Russian

  239. Language : Russian

  240. Service kind : Complete Main

  241. Default : No

  242. Forced : No


  243. Audio #11

  244. ID : 12

  245. Format : E-AC-3

  246. Format/Info : Enhanced AC-3

  247. Commercial name : Dolby Digital Plus

  248. Codec ID : A_EAC3

  249. Duration : 2 h 3 min

  250. Bit rate mode : Constant

  251. Bit rate : 640 kb/s

  252. Channel(s) : 6 channels

  253. Channel layout : L R C LFE Ls Rs

  254. Sampling rate : 48.0 kHz

  255. Frame rate : 31.250 FPS (1536 SPF)

  256. Compression mode : Lossy

  257. Stream size : 564 MiB (6%)

  258. Title : Spanish

  259. Language : Spanish

  260. Service kind : Complete Main

  261. Default : No

  262. Forced : No


  263. Audio #12

  264. ID : 13

  265. Format : E-AC-3

  266. Format/Info : Enhanced AC-3

  267. Commercial name : Dolby Digital Plus

  268. Codec ID : A_EAC3

  269. Duration : 2 h 3 min

  270. Bit rate mode : Constant

  271. Bit rate : 640 kb/s

  272. Channel(s) : 6 channels

  273. Channel layout : L R C LFE Ls Rs

  274. Sampling rate : 48.0 kHz

  275. Frame rate : 31.250 FPS (1536 SPF)

  276. Compression mode : Lossy

  277. Stream size : 564 MiB (6%)

  278. Title : European Spanish

  279. Language : Spanish

  280. Service kind : Complete Main

  281. Default : No

  282. Forced : No


  283. Audio #13

  284. ID : 14

  285. Format : E-AC-3

  286. Format/Info : Enhanced AC-3

  287. Commercial name : Dolby Digital Plus

  288. Codec ID : A_EAC3

  289. Duration : 2 h 3 min

  290. Bit rate mode : Constant

  291. Bit rate : 640 kb/s

  292. Channel(s) : 6 channels

  293. Channel layout : L R C LFE Ls Rs

  294. Sampling rate : 48.0 kHz

  295. Frame rate : 31.250 FPS (1536 SPF)

  296. Compression mode : Lossy

  297. Stream size : 564 MiB (6%)

  298. Title : Thai

  299. Language : Thai

  300. Service kind : Complete Main

  301. Default : No

  302. Forced : No


  303. Audio #14

  304. ID : 15

  305. Format : E-AC-3

  306. Format/Info : Enhanced AC-3

  307. Commercial name : Dolby Digital Plus

  308. Codec ID : A_EAC3

  309. Duration : 2 h 3 min

  310. Bit rate mode : Constant

  311. Bit rate : 640 kb/s

  312. Channel(s) : 6 channels

  313. Channel layout : L R C LFE Ls Rs

  314. Sampling rate : 48.0 kHz

  315. Frame rate : 31.250 FPS (1536 SPF)

  316. Compression mode : Lossy

  317. Stream size : 564 MiB (6%)

  318. Title : Turkish

  319. Language : Turkish

  320. Service kind : Complete Main

  321. Default : No

  322. Forced : No


  323. Text #1

  324. ID : 16

  325. Format : UTF-8

  326. Codec ID : S_TEXT/UTF8

  327. Codec ID/Info : UTF-8 Plain Text

  328. Duration : 1 h 51 min

  329. Bit rate : 12 b/s

  330. Count of elements : 379

  331. Stream size : 10.3 KiB (0%)

  332. Title : English

  333. Language : English

  334. Default : Yes

  335. Forced : No


  336. Text #2

  337. ID : 17

  338. Format : UTF-8

  339. Codec ID : S_TEXT/UTF8

  340. Codec ID/Info : UTF-8 Plain Text

  341. Duration : 2 h 1 min

  342. Bit rate : 56 b/s

  343. Count of elements : 1000

  344. Stream size : 50.3 KiB (0%)

  345. Title : Arabic

  346. Language : Arabic

  347. Default : No

  348. Forced : No


  349. Text #3

  350. ID : 18

  351. Format : UTF-8

  352. Codec ID : S_TEXT/UTF8

  353. Codec ID/Info : UTF-8 Plain Text

  354. Duration : 2 h 1 min

  355. Bit rate : 33 b/s

  356. Count of elements : 984

  357. Stream size : 29.5 KiB (0%)

  358. Title : Chinese Simplified

  359. Language : Chinese

  360. Default : No

  361. Forced : No


  362. Text #4

  363. ID : 19

  364. Format : UTF-8

  365. Codec ID : S_TEXT/UTF8

  366. Codec ID/Info : UTF-8 Plain Text

  367. Duration : 2 h 1 min

  368. Bit rate : 31 b/s

  369. Count of elements : 1035

  370. Stream size : 28.3 KiB (0%)

  371. Title : Chinese Traditional

  372. Language : Chinese

  373. Default : No

  374. Forced : No


  375. Text #5

  376. ID : 20

  377. Format : UTF-8

  378. Codec ID : S_TEXT/UTF8

  379. Codec ID/Info : UTF-8 Plain Text

  380. Duration : 2 h 1 min

  381. Bit rate : 27 b/s

  382. Count of elements : 968

  383. Stream size : 24.3 KiB (0%)

  384. Title : Croatian

  385. Language : Croatian

  386. Default : No

  387. Forced : No


  388. Text #6

  389. ID : 21

  390. Format : UTF-8

  391. Codec ID : S_TEXT/UTF8

  392. Codec ID/Info : UTF-8 Plain Text

  393. Duration : 2 h 0 min

  394. Bit rate : 30 b/s

  395. Count of elements : 985

  396. Stream size : 26.7 KiB (0%)

  397. Title : Czech

  398. Language : Czech

  399. Default : No

  400. Forced : No


  401. Text #7

  402. ID : 22

  403. Format : UTF-8

  404. Codec ID : S_TEXT/UTF8

  405. Codec ID/Info : UTF-8 Plain Text

  406. Duration : 2 h 1 min

  407. Bit rate : 28 b/s

  408. Count of elements : 973

  409. Stream size : 25.7 KiB (0%)

  410. Title : Danish

  411. Language : Danish

  412. Default : No

  413. Forced : No


  414. Text #8

  415. ID : 23

  416. Format : UTF-8

  417. Codec ID : S_TEXT/UTF8

  418. Codec ID/Info : UTF-8 Plain Text

  419. Duration : 1 h 52 min

  420. Bit rate : 29 b/s

  421. Count of elements : 872

  422. Stream size : 24.1 KiB (0%)

  423. Title : Dutch

  424. Language : Dutch

  425. Default : No

  426. Forced : No


  427. Text #9

  428. ID : 24

  429. Format : UTF-8

  430. Codec ID : S_TEXT/UTF8

  431. Codec ID/Info : UTF-8 Plain Text

  432. Duration : 2 h 1 min

  433. Bit rate : 29 b/s

  434. Count of elements : 854

  435. Stream size : 26.4 KiB (0%)

  436. Title : Finnish

  437. Language : Finnish

  438. Default : No

  439. Forced : No


  440. Text #10

  441. ID : 25

  442. Format : UTF-8

  443. Codec ID : S_TEXT/UTF8

  444. Codec ID/Info : UTF-8 Plain Text

  445. Duration : 2 h 1 min

  446. Bit rate : 29 b/s

  447. Count of elements : 934

  448. Stream size : 26.3 KiB (0%)

  449. Title : French

  450. Language : French

  451. Default : No

  452. Forced : No


  453. Text #11

  454. ID : 26

  455. Format : UTF-8

  456. Codec ID : S_TEXT/UTF8

  457. Codec ID/Info : UTF-8 Plain Text

  458. Duration : 2 h 0 min

  459. Bit rate : 54 b/s

  460. Count of elements : 1274

  461. Stream size : 48.1 KiB (0%)

  462. Title : German

  463. Language : German

  464. Default : No

  465. Forced : No


  466. Text #12

  467. ID : 27

  468. Format : UTF-8

  469. Codec ID : S_TEXT/UTF8

  470. Codec ID/Info : UTF-8 Plain Text

  471. Duration : 1 h 59 min

  472. Bit rate : 3 b/s

  473. Count of elements : 68

  474. Stream size : 2.96 KiB (0%)

  475. Title : German (Forced)

  476. Language : German

  477. Default : No

  478. Forced : Yes


  479. Text #13

  480. ID : 28

  481. Format : UTF-8

  482. Codec ID : S_TEXT/UTF8

  483. Codec ID/Info : UTF-8 Plain Text

  484. Duration : 2 h 1 min

  485. Bit rate : 53 b/s

  486. Count of elements : 1039

  487. Stream size : 47.3 KiB (0%)

  488. Title : Greek

  489. Language : Greek

  490. Default : No

  491. Forced : No


  492. Text #14

  493. ID : 29

  494. Format : UTF-8

  495. Codec ID : S_TEXT/UTF8

  496. Codec ID/Info : UTF-8 Plain Text

  497. Duration : 2 h 1 min

  498. Bit rate : 50 b/s

  499. Count of elements : 981

  500. Stream size : 44.6 KiB (0%)

  501. Title : Hebrew

  502. Language : Hebrew

  503. Default : No

  504. Forced : No


  505. Text #15

  506. ID : 30

  507. Format : UTF-8

  508. Codec ID : S_TEXT/UTF8

  509. Codec ID/Info : UTF-8 Plain Text

  510. Duration : 2 h 1 min

  511. Bit rate : 31 b/s

  512. Count of elements : 992

  513. Stream size : 27.7 KiB (0%)

  514. Title : Hungarian

  515. Language : Hungarian

  516. Default : No

  517. Forced : No


  518. Text #16

  519. ID : 31

  520. Format : UTF-8

  521. Codec ID : S_TEXT/UTF8

  522. Codec ID/Info : UTF-8 Plain Text

  523. Duration : 2 h 1 min

  524. Bit rate : 30 b/s

  525. Count of elements : 983

  526. Stream size : 26.8 KiB (0%)

  527. Title : Indonesian

  528. Language : Indonesian

  529. Default : No

  530. Forced : No


  531. Text #17

  532. ID : 32

  533. Format : UTF-8

  534. Codec ID : S_TEXT/UTF8

  535. Codec ID/Info : UTF-8 Plain Text

  536. Duration : 2 h 1 min

  537. Bit rate : 27 b/s

  538. Count of elements : 965

  539. Stream size : 24.0 KiB (0%)

  540. Title : Italian

  541. Language : Italian

  542. Default : No

  543. Forced : No


  544. Text #18

  545. ID : 33

  546. Format : UTF-8

  547. Codec ID : S_TEXT/UTF8

  548. Codec ID/Info : UTF-8 Plain Text

  549. Duration : 2 h 1 min

  550. Bit rate : 32 b/s

  551. Count of elements : 1023

  552. Stream size : 28.4 KiB (0%)

  553. Title : Japanese

  554. Language : Japanese

  555. Default : No

  556. Forced : No


  557. Text #19

  558. ID : 34

  559. Format : UTF-8

  560. Codec ID : S_TEXT/UTF8

  561. Codec ID/Info : UTF-8 Plain Text

  562. Duration : 2 h 1 min

  563. Bit rate : 40 b/s

  564. Count of elements : 986

  565. Stream size : 35.9 KiB (0%)

  566. Title : Korean

  567. Language : Korean

  568. Default : No

  569. Forced : No


  570. Text #20

  571. ID : 35

  572. Format : UTF-8

  573. Codec ID : S_TEXT/UTF8

  574. Codec ID/Info : UTF-8 Plain Text

  575. Duration : 2 h 1 min

  576. Bit rate : 28 b/s

  577. Count of elements : 985

  578. Stream size : 25.4 KiB (0%)

  579. Title : Malay

  580. Language : Malay

  581. Default : No

  582. Forced : No


  583. Text #21

  584. ID : 36

  585. Format : UTF-8

  586. Codec ID : S_TEXT/UTF8

  587. Codec ID/Info : UTF-8 Plain Text

  588. Duration : 2 h 1 min

  589. Bit rate : 28 b/s

  590. Count of elements : 963

  591. Stream size : 25.4 KiB (0%)

  592. Title : Norwegian Bokmal

  593. Language : Norwegian Bokmal

  594. Default : No

  595. Forced : No


  596. Text #22

  597. ID : 37

  598. Format : UTF-8

  599. Codec ID : S_TEXT/UTF8

  600. Codec ID/Info : UTF-8 Plain Text

  601. Duration : 2 h 1 min

  602. Bit rate : 28 b/s

  603. Count of elements : 973

  604. Stream size : 25.7 KiB (0%)

  605. Title : Polish

  606. Language : Polish

  607. Default : No

  608. Forced : No


  609. Text #23

  610. ID : 38

  611. Format : UTF-8

  612. Codec ID : S_TEXT/UTF8

  613. Codec ID/Info : UTF-8 Plain Text

  614. Duration : 2 h 1 min

  615. Bit rate : 29 b/s

  616. Count of elements : 977

  617. Stream size : 26.3 KiB (0%)

  618. Title : Portuguese

  619. Language : Portuguese

  620. Default : No

  621. Forced : No


  622. Text #24

  623. ID : 39

  624. Format : UTF-8

  625. Codec ID : S_TEXT/UTF8

  626. Codec ID/Info : UTF-8 Plain Text

  627. Duration : 2 h 1 min

  628. Bit rate : 30 b/s

  629. Count of elements : 980

  630. Stream size : 26.7 KiB (0%)

  631. Title : Brazilian Portuguese

  632. Language : Portuguese

  633. Default : No

  634. Forced : No


  635. Text #25

  636. ID : 40

  637. Format : UTF-8

  638. Codec ID : S_TEXT/UTF8

  639. Codec ID/Info : UTF-8 Plain Text

  640. Duration : 2 h 1 min

  641. Bit rate : 33 b/s

  642. Count of elements : 961

  643. Stream size : 29.8 KiB (0%)

  644. Title : Romanian

  645. Language : Romanian

  646. Default : No

  647. Forced : No


  648. Text #26

  649. ID : 41

  650. Format : UTF-8

  651. Codec ID : S_TEXT/UTF8

  652. Codec ID/Info : UTF-8 Plain Text

  653. Duration : 2 h 1 min

  654. Bit rate : 47 b/s

  655. Count of elements : 987

  656. Stream size : 41.8 KiB (0%)

  657. Title : Russian

  658. Language : Russian

  659. Default : No

  660. Forced : No


  661. Text #27

  662. ID : 42

  663. Format : UTF-8

  664. Codec ID : S_TEXT/UTF8

  665. Codec ID/Info : UTF-8 Plain Text

  666. Duration : 2 h 1 min

  667. Bit rate : 31 b/s

  668. Count of elements : 992

  669. Stream size : 27.6 KiB (0%)

  670. Title : Spanish

  671. Language : Spanish

  672. Default : No

  673. Forced : No


  674. Text #28

  675. ID : 43

  676. Format : UTF-8

  677. Codec ID : S_TEXT/UTF8

  678. Codec ID/Info : UTF-8 Plain Text

  679. Duration : 2 h 1 min

  680. Bit rate : 30 b/s

  681. Count of elements : 984

  682. Stream size : 26.6 KiB (0%)

  683. Title : European Spanish

  684. Language : Spanish

  685. Default : No

  686. Forced : No


  687. Text #29

  688. ID : 44

  689. Format : UTF-8

  690. Codec ID : S_TEXT/UTF8

  691. Codec ID/Info : UTF-8 Plain Text

  692. Duration : 2 h 1 min

  693. Bit rate : 30 b/s

  694. Count of elements : 886

  695. Stream size : 26.9 KiB (0%)

  696. Title : Swedish

  697. Language : Swedish

  698. Default : No

  699. Forced : No


  700. Text #30

  701. ID : 45

  702. Format : UTF-8

  703. Codec ID : S_TEXT/UTF8

  704. Codec ID/Info : UTF-8 Plain Text

  705. Duration : 2 h 1 min

  706. Bit rate : 78 b/s

  707. Count of elements : 984

  708. Stream size : 69.4 KiB (0%)

  709. Title : Thai

  710. Language : Thai

  711. Default : No

  712. Forced : No


  713. Text #31

  714. ID : 46

  715. Format : UTF-8

  716. Codec ID : S_TEXT/UTF8

  717. Codec ID/Info : UTF-8 Plain Text

  718. Duration : 2 h 1 min

  719. Bit rate : 30 b/s

  720. Count of elements : 971

  721. Stream size : 27.0 KiB (0%)

  722. Title : Turkish

  723. Language : Turkish

  724. Default : No

  725. Forced : No


  726. Text #32

  727. ID : 47

  728. Format : UTF-8

  729. Codec ID : S_TEXT/UTF8

  730. Codec ID/Info : UTF-8 Plain Text

  731. Duration : 2 h 1 min

  732. Bit rate : 46 b/s

  733. Count of elements : 985

  734. Stream size : 41.0 KiB (0%)

  735. Title : Ukrainian

  736. Language : Ukrainian

  737. Default : No

  738. Forced : No


  739. Text #33

  740. ID : 48

  741. Format : UTF-8

  742. Codec ID : S_TEXT/UTF8

  743. Codec ID/Info : UTF-8 Plain Text

  744. Duration : 2 h 1 min

  745. Bit rate : 43 b/s

  746. Count of elements : 951

  747. Stream size : 38.6 KiB (0%)

  748. Title : Vietnamese

  749. Language : Vietnamese

  750. Default : No

  751. Forced : No





文件下载


除非特别注明,本文『血色天劫[简繁字幕]Blood.Red.Sky.2021.1080p.NF.WEB-DL.DDP5.1.x264-迅雷下载 9.38GB』来源于互联网机器人自动抓取,非本站原创。 浮游电影网不对本文拥有版权,如有侵犯,请联系邮箱:fuyouu#yandex.com[#换成@]投诉。我们会在15个工作日内删除。 但烦请转载时请标明出处:“本文转载于『浮游电影网』,原文地址:https://www.fuyouu.com/13226.html

评论吧骚年!

发表你的见解   

昵称*

E-mail*(建议输入,以便收到博主回复的提示邮件)

验证码*

您可以使用eMule或eMule Mod(Windows)、aMule(Win、Linux、Mac)等软件下载eD2k链接。。
eMule收藏集(.emulecollection)文件是您选中的所有链接的列表文件。eMule可以直接下载它们。
按住SHIFT键选择可以选中多个选择框。
可用文件名和大小选择器来选择文件。
文件名选择器帮您根据文件名称或后缀来选择文件。不分大小写。
符号使用:
和:空格( )、+
不包含:-
或:|
转义:一对英文引号("");
匹配开头:^
匹配结尾:$
例如:
选中所有名称中包含有“eMule”或“0.49c”字眼,但不包含有“exe”字眼的:emule|0.49c -exe
选中所有名称的开头是“eMule”,结尾是“0.49c”的:^emule 0.49c$
选中所有名称中带有“eMule 0.49c”的(必须是“eMule 0.49c”,中间没有别的字符,不能是“eMule fake 0.49c”),需要转义:"emule 0.49c"
大小选择器帮您根据文件大小选择文件。