当前位置: 首页 >> 海外电影 >> 伊万的童年[中文字幕]Ivans.Childhood.1962.1080p.BluRay.DD2.0.x265-10bit-迅雷下载 6.26GB >> 正文

伊万的童年[中文字幕]Ivans.Childhood.1962.1080p.BluRay.DD2.0.x265-10bit-迅雷下载 6.26GB

2021年07月25日 10:32:28     电影发布:来源于网络     电影分类:海外电影     评论(0)    

伊万的童年[中文字幕]Ivans.Childhood.1962.1080p.BluRay.DD2.0.x265 10bit 迅雷下载 6.26GB 战争片 剧情片 海外电影  第1张

◎译 名 伊万的童年 / 伊凡的少年时代(台) / 伊凡的童年 / 伊凡的童年时代 / Ivanovo detstvo / Ivan's Childhood

◎片 名 Иваново детство

◎年 代 1962

◎产 地 苏联

◎类 别 剧情 / 战争

◎语 言 俄语 / 德语

◎上映日期 1962-04-06(苏联)

◎IMDb链接 https://www.imdb.com/title/tt0056111/

◎豆瓣评分 8.7/10 (26856人评价)

◎豆瓣链接 https://movie.douban.com/subject/1294421/

◎片 长 95分钟

◎导 演 安德烈·塔可夫斯基 Andrei Tarkovsky (id:1027778)

爱德华·阿巴洛夫 Eduard Abalov (id:1332269)

◎编 剧 安德烈·康查洛夫斯基 Andrey Konchalovskiy (id:1103766)

安德烈·塔可夫斯基 Andrei Tarkovsky (id:1027778)

米哈伊尔·帕帕瓦 Mikhail Papava (id:1043756)

弗拉基米尔·博戈莫诺夫 Vladimir Bogomolov (id:1011671)

◎演 员 尼古拉·布尔里亚耶夫 Nikolay Burlyaev (id:1067513)

瓦连京·祖布科夫 Valentin Zubkov (id:1167243)

叶甫盖尼·扎里科夫 Yevgeni Zharikov (id:1168160)

斯捷潘·克雷洛夫 Stepan Krylov (id:1103132)

尼古拉·格林科 Nikolai Grinko (id:1019480)

季米特里·米柳坚科 Dmitri Milyutenko (id:1117801)

瓦连京娜·玛利亚维娜 Valentina Malyavina (id:1125542)

伊尔玛·拉乌什 Irina Tarkovskaya (id:1148452)

安德烈·康查洛夫斯基 Andrey Konchalovskiy (id:1103766)

伊万·萨夫金 Ivan Savkin (id:1332268)

弗拉基米尔·马连科夫 Vladimir Marenkov (id:1123279)

◎标 签 苏联 / 战争 / 二战 / 黑白 / 1962 / 儿童 / 经典 / 剧情

◎简 介

残酷的战争摧毁了12岁男孩伊万(Nikolay Burlyaev 饰)的童年,母亲和姐姐早年被德国军队杀害,小小年纪的伊万也不得不走上战场,成为一名在战火和死亡中穿梭的侦察兵。

由于年龄的关系,中尉戈克森甚至不敢相信伊万的身份,但从科赫林上尉(Valentin Zubk ov 饰)的口中,他得知眼前这瘦小的男孩竟如此果敢。科赫林上尉希望将伊万带离战场,送他到远方读书。然而伊万却拒绝离开,这个勇敢的男孩决心战斗到生命的最后一刻……

本片荣获1962年旧金山国际电影节最佳导演奖和1962年威尼斯电影节金狮奖。

◎获奖情况 (共1项)

第23届威尼斯电影节 (1962)

主竞赛单元 金狮奖

└──安德烈·塔可夫斯基 (id:1027778)

  1. ##### MediaInfo ######

  2. General

  3. Unique ID : 47091631306671340049231306387562133905 (0x236D84AE6A25BBEEC72BEFA5DE8F7991)

  4. Complete name : [email protected]COM.mkv

  5. Format : Matroska

  6. Format version : Version 4

  7. File size : 6.26 GiB

  8. Duration : 1 h 35 min

  9. Overall bit rate : 9 417 kb/s

  10. Movie name : Ivans Childhood 1962 1080p BluRay DD2.0 [email protected]

  11. Encoded date : UTC 2021-07-22 14:48:04

  12. Writing application : mkvmerge v38.0.0 ('The Silent Type') 64-bit

  13. Writing library : libebml v1.3.9 + libmatroska v1.5.2


  14. Video

  15. ID : 1

  16. Format : HEVC

  17. Format/Info : High Efficiency Video Coding

  18. Format profile : Main [email protected]@High

  19. Codec ID : V_MPEGH/ISO/HEVC

  20. Duration : 1 h 35 min

  21. Bit rate : 8 958 kb/s

  22. Width : 1 440 pixels

  23. Height : 1 080 pixels

  24. Display aspect ratio : 4:3

  25. Frame rate mode : Constant

  26. Frame rate : 23.976 (24000/1001/53354) FPS

  27. Color space : YUV

  28. Chroma subsampling : 4:2:0

  29. Bit depth : 10 bits

  30. Bits/(Pixel*Frame) : 0.240

  31. Stream size : 5.96 GiB (95%)

  32. Title : [email protected]

  33. Writing library : x265 - H.265/HEVC codec

  34. Default : Yes

  35. Forced : No


  36. Audio

  37. ID : 2

  38. Format : AC-3

  39. Format/Info : Audio Coding 3

  40. Commercial name : Dolby Digital

  41. Codec ID : A_AC3

  42. Duration : 1 h 35 min

  43. Bit rate mode : Constant

  44. Bit rate : 448 kb/s

  45. Channel(s) : 1 channel

  46. Channel layout : C

  47. Sampling rate : 48.0 kHz

  48. Frame rate : 31.250 FPS (1536 SPF)

  49. Compression mode : Lossy

  50. Stream size : 305 MiB (5%)

  51. Title : Russian

  52. Language : Russian

  53. Service kind : Complete Main

  54. Default : Yes

  55. Forced : No


  56. Text

  57. ID : 3

  58. Format : PGS

  59. Muxing mode : zlib

  60. Codec ID : S_HDMV/PGS

  61. Codec ID/Info : Picture based subtitle format used on BDs/HD-DVDs

  62. Duration : 1 h 31 min

  63. Bit rate : 17.7 kb/s

  64. Count of elements : 1389

  65. Stream size : 11.5 MiB (0%)

  66. Title : CHS

  67. Language : Chinese

  68. Default : Yes

  69. Forced : No




文件下载


除非特别注明,本文『伊万的童年[中文字幕]Ivans.Childhood.1962.1080p.BluRay.DD2.0.x265-10bit-迅雷下载 6.26GB』来源于互联网机器人自动抓取,非本站原创。 浮游电影网不对本文拥有版权,如有侵犯,请联系邮箱:fuyouu#yandex.com[#换成@]投诉。我们会在15个工作日内删除。 但烦请转载时请标明出处:“本文转载于『浮游电影网』,原文地址:https://5.189.174.242/13224.html

评论吧骚年!

发表你的见解   

昵称*

E-mail*(建议输入,以便收到博主回复的提示邮件)

验证码*

您可以使用eMule或eMule Mod(Windows)、aMule(Win、Linux、Mac)等软件下载eD2k链接。。
eMule收藏集(.emulecollection)文件是您选中的所有链接的列表文件。eMule可以直接下载它们。
按住SHIFT键选择可以选中多个选择框。
可用文件名和大小选择器来选择文件。
文件名选择器帮您根据文件名称或后缀来选择文件。不分大小写。
符号使用:
和:空格( )、+
不包含:-
或:|
转义:一对英文引号("");
匹配开头:^
匹配结尾:$
例如:
选中所有名称中包含有“eMule”或“0.49c”字眼,但不包含有“exe”字眼的:emule|0.49c -exe
选中所有名称的开头是“eMule”,结尾是“0.49c”的:^emule 0.49c$
选中所有名称中带有“eMule 0.49c”的(必须是“eMule 0.49c”,中间没有别的字符,不能是“eMule fake 0.49c”),需要转义:"emule 0.49c"
大小选择器帮您根据文件大小选择文件。