当前位置: 首页 >> 日韩电影 >> 王国:北方的阿信[简繁字幕]Kingdom.Ashin.of.the.North.2021.1080p.HDR.NF.WEB-DL.DDP5.1.Atmos.HEVC-迅雷下载 8.80GB >> 正文

王国:北方的阿信[简繁字幕]Kingdom.Ashin.of.the.North.2021.1080p.HDR.NF.WEB-DL.DDP5.1.Atmos.HEVC-迅雷下载 8.80GB

2021年07月24日 09:01:06     电影发布:来源于网络     电影分类:日韩电影     评论(0)    

王国:北方的阿信[简繁字幕]Kingdom.Ashin.of.the.North.2021.1080p.HDR.NF.WEB DL.DDP5.1.Atmos.HEVC 迅雷下载 8.80GB 恐怖片 古装片 剧情片 日韩电影  第1张

◎译 名 王国:北方的阿信 / 王国:阿信传 / 尸战朝鲜:雅信传(港 / 台) / 李尸朝鲜:外传 / 尸战朝鲜:前传 / 尸战朝鲜:阿信传 / 王国:前传 / 王国外传 / 王国外传:阿信篇 / 北方的阿信 / Kingdom: Ashin of the North / Kingdom: Ashin-jeon

◎片 名 ??:???

◎年 代 2021

◎产 地 韩国

◎类 别 剧情 / 恐怖 / 古装

◎语 言 韩语

◎上映日期 2021-07-23(韩国)

◎IMDb链接 https://www.imdb.com/title/tt13412252/

◎豆瓣评分 7.0/10 (1065人评价)

◎豆瓣链接 https://movie.douban.com/subject/35151297/

◎片 长 92分钟

◎导 演 金成勋 Seong-hoon Kim (id:1341016)

◎编 剧 金银姬 Eun-hee Kim (id:1320116)

◎演 员 全智贤 Gianna Jun (id:1035649)

朴秉恩 Byung-eun Park (id:1320142)

金诗雅 Si-ah Kim (id:1400241)

金雷夏 Roe-ha Kim (id:1213426)

具乔焕 Gu Kyohwan (id:1363439)

◎标 签 Netflix / 丧尸 / 全智贤 / 韩国 / 王国 / 王国外传 / 惊悚 / 2021

◎简 介

阿信和其父是定居于朝鲜王国的番邦异族。他们遇到了一种神秘疾病,这进而导致雅信走上了背叛、偏见和复仇的道路。

  1. ##### MediaInfo ######

  2. General

  3. Unique ID : 137722638569969572999423597590672490236 (0x679C6A554EC6AAB370D0AF58E57ABEFC)

  4. Complete name : Kingdom.Ashi[email protected]BBQDDQ.COM.mkv

  5. Format : Matroska

  6. Format version : Version 4

  7. File size : 8.80 GiB

  8. Duration : 1 h 33 min

  9. Overall bit rate : 13.4 Mb/s

  10. Encoded date : UTC 2021-07-23 07:39:30

  11. Writing application : mkvmerge v59.0.0 ('Shining Star') 64-bit

  12. Writing library : libebml v1.4.2 + libmatroska v1.6.4


  13. Video

  14. ID : 1

  15. Format : HEVC

  16. Format/Info : High Efficiency Video Coding

  17. Format profile : Main [email protected]@Main

  18. HDR format : SMPTE ST 2086, HDR10 compatible

  19. Codec ID : V_MPEGH/ISO/HEVC

  20. Duration : 1 h 32 min

  21. Bit rate : 5 540 kb/s

  22. Width : 1 920 pixels

  23. Height : 1 080 pixels

  24. Display aspect ratio : 16:9

  25. Frame rate mode : Constant

  26. Frame rate : 23.976 (24000/1001/53354) FPS

  27. Color space : YUV

  28. Chroma subsampling : 4:2:0 (Type 2)

  29. Bit depth : 10 bits

  30. Bits/(Pixel*Frame) : 0.111

  31. Stream size : 3.59 GiB (41%)

  32. Default : Yes

  33. Forced : No

  34. Color range : Limited

  35. Color primaries : BT.2020

  36. Transfer characteristics : PQ

  37. Matrix coefficients : BT.2020 non-constant

  38. Mastering display color primaries : Display P3

  39. Mastering display luminance : min: 0.0001 cd/m2, max: 1000 cd/m2

  40. Maximum Content Light Level : 1121 cd/m2

  41. Maximum Frame-Average Light Level : 235 cd/m2


  42. Audio #1

  43. ID : 2

  44. Format : E-AC-3 JOC

  45. Format/Info : Enhanced AC-3 with Joint Object Coding

  46. Commercial name : Dolby Digital Plus with Dolby Atmos

  47. Codec ID : A_EAC3

  48. Duration : 1 h 33 min

  49. Bit rate mode : Constant

  50. Bit rate : 768 kb/s

  51. Channel(s) : 6 channels

  52. Channel layout : L R C LFE Ls Rs

  53. Sampling rate : 48.0 kHz

  54. Frame rate : 31.250 FPS (1536 SPF)

  55. Compression mode : Lossy

  56. Stream size : 515 MiB (6%)

  57. Title : Korean

  58. Language : Korean

  59. Service kind : Complete Main

  60. Default : Yes

  61. Forced : No

  62. Complexity index : 16

  63. Number of dynamic objects : 15

  64. Bed channel count : 1 channel

  65. Bed channel configuration : LFE


  66. Audio #2

  67. ID : 3

  68. Format : E-AC-3 JOC

  69. Format/Info : Enhanced AC-3 with Joint Object Coding

  70. Commercial name : Dolby Digital Plus with Dolby Atmos

  71. Codec ID : A_EAC3

  72. Duration : 1 h 33 min

  73. Bit rate mode : Constant

  74. Bit rate : 768 kb/s

  75. Channel(s) : 6 channels

  76. Channel layout : L R C LFE Ls Rs

  77. Sampling rate : 48.0 kHz

  78. Frame rate : 31.250 FPS (1536 SPF)

  79. Compression mode : Lossy

  80. Stream size : 515 MiB (6%)

  81. Title : English

  82. Language : English

  83. Service kind : Complete Main

  84. Default : No

  85. Forced : No

  86. Complexity index : 16

  87. Number of dynamic objects : 15

  88. Bed channel count : 1 channel

  89. Bed channel configuration : LFE


  90. Audio #3

  91. ID : 4

  92. Format : E-AC-3

  93. Format/Info : Enhanced AC-3

  94. Commercial name : Dolby Digital Plus

  95. Codec ID : A_EAC3

  96. Duration : 1 h 33 min

  97. Bit rate mode : Constant

  98. Bit rate : 640 kb/s

  99. Channel(s) : 6 channels

  100. Channel layout : L R C LFE Ls Rs

  101. Sampling rate : 48.0 kHz

  102. Frame rate : 31.250 FPS (1536 SPF)

  103. Compression mode : Lossy

  104. Stream size : 430 MiB (5%)

  105. Title : French

  106. Language : French

  107. Service kind : Complete Main

  108. Default : No

  109. Forced : No


  110. Audio #4

  111. ID : 5

  112. Format : E-AC-3

  113. Format/Info : Enhanced AC-3

  114. Commercial name : Dolby Digital Plus

  115. Codec ID : A_EAC3

  116. Duration : 1 h 33 min

  117. Bit rate mode : Constant

  118. Bit rate : 640 kb/s

  119. Channel(s) : 6 channels

  120. Channel layout : L R C LFE Ls Rs

  121. Sampling rate : 48.0 kHz

  122. Frame rate : 31.250 FPS (1536 SPF)

  123. Compression mode : Lossy

  124. Stream size : 430 MiB (5%)

  125. Title : German

  126. Language : German

  127. Service kind : Complete Main

  128. Default : No

  129. Forced : No


  130. Audio #5

  131. ID : 6

  132. Format : E-AC-3

  133. Format/Info : Enhanced AC-3

  134. Commercial name : Dolby Digital Plus

  135. Codec ID : A_EAC3

  136. Duration : 1 h 33 min

  137. Bit rate mode : Constant

  138. Bit rate : 640 kb/s

  139. Channel(s) : 6 channels

  140. Channel layout : L R C LFE Ls Rs

  141. Sampling rate : 48.0 kHz

  142. Frame rate : 31.250 FPS (1536 SPF)

  143. Compression mode : Lossy

  144. Stream size : 430 MiB (5%)

  145. Title : Japanese

  146. Language : Japanese

  147. Service kind : Complete Main

  148. Default : No

  149. Forced : No


  150. Audio #6

  151. ID : 7

  152. Format : E-AC-3

  153. Format/Info : Enhanced AC-3

  154. Commercial name : Dolby Digital Plus

  155. Codec ID : A_EAC3

  156. Duration : 1 h 33 min

  157. Bit rate mode : Constant

  158. Bit rate : 640 kb/s

  159. Channel(s) : 6 channels

  160. Channel layout : L R C LFE Ls Rs

  161. Sampling rate : 48.0 kHz

  162. Frame rate : 31.250 FPS (1536 SPF)

  163. Compression mode : Lossy

  164. Stream size : 430 MiB (5%)

  165. Title : Polish

  166. Language : Polish

  167. Service kind : Complete Main

  168. Default : No

  169. Forced : No


  170. Audio #7

  171. ID : 8

  172. Format : E-AC-3

  173. Format/Info : Enhanced AC-3

  174. Commercial name : Dolby Digital Plus

  175. Codec ID : A_EAC3

  176. Duration : 1 h 33 min

  177. Bit rate mode : Constant

  178. Bit rate : 640 kb/s

  179. Channel(s) : 6 channels

  180. Channel layout : L R C LFE Ls Rs

  181. Sampling rate : 48.0 kHz

  182. Frame rate : 31.250 FPS (1536 SPF)

  183. Compression mode : Lossy

  184. Stream size : 430 MiB (5%)

  185. Title : Brazilian Portuguese

  186. Language : Portuguese

  187. Service kind : Complete Main

  188. Default : No

  189. Forced : No


  190. Audio #8

  191. ID : 9

  192. Format : E-AC-3

  193. Format/Info : Enhanced AC-3

  194. Commercial name : Dolby Digital Plus

  195. Codec ID : A_EAC3

  196. Duration : 1 h 33 min

  197. Bit rate mode : Constant

  198. Bit rate : 640 kb/s

  199. Channel(s) : 6 channels

  200. Channel layout : L R C LFE Ls Rs

  201. Sampling rate : 48.0 kHz

  202. Frame rate : 31.250 FPS (1536 SPF)

  203. Compression mode : Lossy

  204. Stream size : 430 MiB (5%)

  205. Title : Spanish

  206. Language : Spanish

  207. Service kind : Complete Main

  208. Default : No

  209. Forced : No


  210. Audio #9

  211. ID : 10

  212. Format : E-AC-3

  213. Format/Info : Enhanced AC-3

  214. Commercial name : Dolby Digital Plus

  215. Codec ID : A_EAC3

  216. Duration : 1 h 33 min

  217. Bit rate mode : Constant

  218. Bit rate : 640 kb/s

  219. Channel(s) : 6 channels

  220. Channel layout : L R C LFE Ls Rs

  221. Sampling rate : 48.0 kHz

  222. Frame rate : 31.250 FPS (1536 SPF)

  223. Compression mode : Lossy

  224. Stream size : 430 MiB (5%)

  225. Title : European Spanish

  226. Language : Spanish

  227. Service kind : Complete Main

  228. Default : No

  229. Forced : No


  230. Audio #10

  231. ID : 11

  232. Format : E-AC-3

  233. Format/Info : Enhanced AC-3

  234. Commercial name : Dolby Digital Plus

  235. Codec ID : A_EAC3

  236. Duration : 1 h 33 min

  237. Bit rate mode : Constant

  238. Bit rate : 640 kb/s

  239. Channel(s) : 6 channels

  240. Channel layout : L R C LFE Ls Rs

  241. Sampling rate : 48.0 kHz

  242. Frame rate : 31.250 FPS (1536 SPF)

  243. Compression mode : Lossy

  244. Stream size : 430 MiB (5%)

  245. Title : Thai

  246. Language : Thai

  247. Service kind : Complete Main

  248. Default : No

  249. Forced : No


  250. Audio #11

  251. ID : 12

  252. Format : E-AC-3

  253. Format/Info : Enhanced AC-3

  254. Commercial name : Dolby Digital Plus

  255. Codec ID : A_EAC3

  256. Duration : 1 h 33 min

  257. Bit rate mode : Constant

  258. Bit rate : 640 kb/s

  259. Channel(s) : 6 channels

  260. Channel layout : L R C LFE Ls Rs

  261. Sampling rate : 48.0 kHz

  262. Frame rate : 31.250 FPS (1536 SPF)

  263. Compression mode : Lossy

  264. Stream size : 430 MiB (5%)

  265. Title : Turkish

  266. Language : Turkish

  267. Service kind : Complete Main

  268. Default : No

  269. Forced : No


  270. Audio #12

  271. ID : 13

  272. Format : E-AC-3

  273. Format/Info : Enhanced AC-3

  274. Commercial name : Dolby Digital Plus

  275. Codec ID : A_EAC3

  276. Duration : 1 h 33 min

  277. Bit rate mode : Constant

  278. Bit rate : 640 kb/s

  279. Channel(s) : 6 channels

  280. Channel layout : L R C LFE Ls Rs

  281. Sampling rate : 48.0 kHz

  282. Frame rate : 31.250 FPS (1536 SPF)

  283. Compression mode : Lossy

  284. Stream size : 430 MiB (5%)

  285. Title : Vietnamese

  286. Language : Vietnamese

  287. Service kind : Complete Main

  288. Default : No

  289. Forced : No


  290. Text #1

  291. ID : 14

  292. Format : UTF-8

  293. Codec ID : S_TEXT/UTF8

  294. Codec ID/Info : UTF-8 Plain Text

  295. Duration : 1 h 32 min

  296. Bit rate : 19 b/s

  297. Count of elements : 429

  298. Stream size : 13.2 KiB (0%)

  299. Title : English

  300. Language : English

  301. Default : Yes

  302. Forced : No


  303. Text #2

  304. ID : 15

  305. Format : UTF-8

  306. Codec ID : S_TEXT/UTF8

  307. Codec ID/Info : UTF-8 Plain Text

  308. Duration : 1 h 32 min

  309. Bit rate : 30 b/s

  310. Count of elements : 430

  311. Stream size : 20.5 KiB (0%)

  312. Title : Arabic

  313. Language : Arabic

  314. Default : No

  315. Forced : No


  316. Text #3

  317. ID : 16

  318. Format : UTF-8

  319. Codec ID : S_TEXT/UTF8

  320. Codec ID/Info : UTF-8 Plain Text

  321. Duration : 1 h 32 min

  322. Bit rate : 18 b/s

  323. Count of elements : 439

  324. Stream size : 12.7 KiB (0%)

  325. Title : Chinese Simplified

  326. Language : Chinese

  327. Default : No

  328. Forced : No


  329. Text #4

  330. ID : 17

  331. Format : UTF-8

  332. Codec ID : S_TEXT/UTF8

  333. Codec ID/Info : UTF-8 Plain Text

  334. Duration : 1 h 32 min

  335. Bit rate : 18 b/s

  336. Count of elements : 436

  337. Stream size : 12.7 KiB (0%)

  338. Title : Chinese Traditional

  339. Language : Chinese

  340. Default : No

  341. Forced : No


  342. Text #5

  343. ID : 18

  344. Format : UTF-8

  345. Codec ID : S_TEXT/UTF8

  346. Codec ID/Info : UTF-8 Plain Text

  347. Duration : 1 h 32 min

  348. Bit rate : 18 b/s

  349. Count of elements : 430

  350. Stream size : 12.6 KiB (0%)

  351. Title : Croatian

  352. Language : Croatian

  353. Default : No

  354. Forced : No


  355. Text #6

  356. ID : 19

  357. Format : UTF-8

  358. Codec ID : S_TEXT/UTF8

  359. Codec ID/Info : UTF-8 Plain Text

  360. Duration : 1 h 32 min

  361. Bit rate : 18 b/s

  362. Count of elements : 430

  363. Stream size : 12.4 KiB (0%)

  364. Title : Czech

  365. Language : Czech

  366. Default : No

  367. Forced : No


  368. Text #7

  369. ID : 20

  370. Format : UTF-8

  371. Codec ID : S_TEXT/UTF8

  372. Codec ID/Info : UTF-8 Plain Text

  373. Duration : 1 h 32 min

  374. Bit rate : 19 b/s

  375. Count of elements : 430

  376. Stream size : 13.2 KiB (0%)

  377. Title : Danish

  378. Language : Danish

  379. Default : No

  380. Forced : No


  381. Text #8

  382. ID : 21

  383. Format : UTF-8

  384. Codec ID : S_TEXT/UTF8

  385. Codec ID/Info : UTF-8 Plain Text

  386. Duration : 1 h 32 min

  387. Bit rate : 19 b/s

  388. Count of elements : 430

  389. Stream size : 13.2 KiB (0%)

  390. Title : Dutch

  391. Language : Dutch

  392. Default : No

  393. Forced : No


  394. Text #9

  395. ID : 22

  396. Format : UTF-8

  397. Codec ID : S_TEXT/UTF8

  398. Codec ID/Info : UTF-8 Plain Text

  399. Duration : 1 h 32 min

  400. Bit rate : 19 b/s

  401. Count of elements : 430

  402. Stream size : 13.0 KiB (0%)

  403. Title : Finnish

  404. Language : Finnish

  405. Default : No

  406. Forced : No


  407. Text #10

  408. ID : 23

  409. Format : UTF-8

  410. Codec ID : S_TEXT/UTF8

  411. Codec ID/Info : UTF-8 Plain Text

  412. Duration : 1 h 32 min

  413. Bit rate : 21 b/s

  414. Count of elements : 434

  415. Stream size : 14.3 KiB (0%)

  416. Title : French

  417. Language : French

  418. Default : No

  419. Forced : No


  420. Text #11

  421. ID : 24

  422. Format : UTF-8

  423. Codec ID : S_TEXT/UTF8

  424. Codec ID/Info : UTF-8 Plain Text

  425. Duration : 1 h 32 min

  426. Bit rate : 20 b/s

  427. Count of elements : 430

  428. Stream size : 14.0 KiB (0%)

  429. Title : German

  430. Language : German

  431. Default : No

  432. Forced : No


  433. Text #12

  434. ID : 25

  435. Format : UTF-8

  436. Codec ID : S_TEXT/UTF8

  437. Codec ID/Info : UTF-8 Plain Text

  438. Duration : 1 h 32 min

  439. Bit rate : 34 b/s

  440. Count of elements : 430

  441. Stream size : 23.3 KiB (0%)

  442. Title : Greek

  443. Language : Greek

  444. Default : No

  445. Forced : No


  446. Text #13

  447. ID : 26

  448. Format : UTF-8

  449. Codec ID : S_TEXT/UTF8

  450. Codec ID/Info : UTF-8 Plain Text

  451. Duration : 1 h 32 min

  452. Bit rate : 28 b/s

  453. Count of elements : 430

  454. Stream size : 19.2 KiB (0%)

  455. Title : Hebrew

  456. Language : Hebrew

  457. Default : No

  458. Forced : No


  459. Text #14

  460. ID : 27

  461. Format : UTF-8

  462. Codec ID : S_TEXT/UTF8

  463. Codec ID/Info : UTF-8 Plain Text

  464. Duration : 1 h 32 min

  465. Bit rate : 18 b/s

  466. Count of elements : 430

  467. Stream size : 12.6 KiB (0%)

  468. Title : Hungarian

  469. Language : Hungarian

  470. Default : No

  471. Forced : No


  472. Text #15

  473. ID : 28

  474. Format : UTF-8

  475. Codec ID : S_TEXT/UTF8

  476. Codec ID/Info : UTF-8 Plain Text

  477. Duration : 1 h 32 min

  478. Bit rate : 18 b/s

  479. Count of elements : 430

  480. Stream size : 12.9 KiB (0%)

  481. Title : Indonesian

  482. Language : Indonesian

  483. Default : No

  484. Forced : No


  485. Text #16

  486. ID : 29

  487. Format : UTF-8

  488. Codec ID : S_TEXT/UTF8

  489. Codec ID/Info : UTF-8 Plain Text

  490. Duration : 1 h 32 min

  491. Bit rate : 19 b/s

  492. Count of elements : 429

  493. Stream size : 13.3 KiB (0%)

  494. Title : Italian

  495. Language : Italian

  496. Default : No

  497. Forced : No


  498. Text #17

  499. ID : 30

  500. Format : UTF-8

  501. Codec ID : S_TEXT/UTF8

  502. Codec ID/Info : UTF-8 Plain Text

  503. Duration : 1 h 32 min

  504. Bit rate : 19 b/s

  505. Count of elements : 380

  506. Stream size : 13.4 KiB (0%)

  507. Title : Japanese

  508. Language : Japanese

  509. Default : No

  510. Forced : No


  511. Text #18

  512. ID : 31

  513. Format : UTF-8

  514. Codec ID : S_TEXT/UTF8

  515. Codec ID/Info : UTF-8 Plain Text

  516. Duration : 1 h 28 min

  517. Bit rate : 53 b/s

  518. Count of elements : 974

  519. Stream size : 35.0 KiB (0%)

  520. Title : Korean

  521. Language : Korean

  522. Default : No

  523. Forced : No


  524. Text #19

  525. ID : 32

  526. Format : UTF-8

  527. Codec ID : S_TEXT/UTF8

  528. Codec ID/Info : UTF-8 Plain Text

  529. Duration : 1 h 32 min

  530. Bit rate : 18 b/s

  531. Count of elements : 430

  532. Stream size : 12.8 KiB (0%)

  533. Title : Malay

  534. Language : Malay

  535. Default : No

  536. Forced : No


  537. Text #20

  538. ID : 33

  539. Format : UTF-8

  540. Codec ID : S_TEXT/UTF8

  541. Codec ID/Info : UTF-8 Plain Text

  542. Duration : 1 h 32 min

  543. Bit rate : 18 b/s

  544. Count of elements : 430

  545. Stream size : 12.5 KiB (0%)

  546. Title : Norwegian Bokmal

  547. Language : Norwegian Bokmal

  548. Default : No

  549. Forced : No


  550. Text #21

  551. ID : 34

  552. Format : UTF-8

  553. Codec ID : S_TEXT/UTF8

  554. Codec ID/Info : UTF-8 Plain Text

  555. Duration : 1 h 32 min

  556. Bit rate : 18 b/s

  557. Count of elements : 429

  558. Stream size : 12.7 KiB (0%)

  559. Title : Polish

  560. Language : Polish

  561. Default : No

  562. Forced : No


  563. Text #22

  564. ID : 35

  565. Format : UTF-8

  566. Codec ID : S_TEXT/UTF8

  567. Codec ID/Info : UTF-8 Plain Text

  568. Duration : 1 h 32 min

  569. Bit rate : 19 b/s

  570. Count of elements : 430

  571. Stream size : 13.0 KiB (0%)

  572. Title : Portuguese

  573. Language : Portuguese

  574. Default : No

  575. Forced : No


  576. Text #23

  577. ID : 36

  578. Format : UTF-8

  579. Codec ID : S_TEXT/UTF8

  580. Codec ID/Info : UTF-8 Plain Text

  581. Duration : 1 h 32 min

  582. Bit rate : 18 b/s

  583. Count of elements : 429

  584. Stream size : 12.8 KiB (0%)

  585. Title : Brazilian Portuguese

  586. Language : Portuguese

  587. Default : No

  588. Forced : No


  589. Text #24

  590. ID : 37

  591. Format : UTF-8

  592. Codec ID : S_TEXT/UTF8

  593. Codec ID/Info : UTF-8 Plain Text

  594. Duration : 1 h 32 min

  595. Bit rate : 22 b/s

  596. Count of elements : 430

  597. Stream size : 15.1 KiB (0%)

  598. Title : Romanian

  599. Language : Romanian

  600. Default : No

  601. Forced : No


  602. Text #25

  603. ID : 38

  604. Format : UTF-8

  605. Codec ID : S_TEXT/UTF8

  606. Codec ID/Info : UTF-8 Plain Text

  607. Duration : 1 h 32 min

  608. Bit rate : 30 b/s

  609. Count of elements : 430

  610. Stream size : 20.5 KiB (0%)

  611. Title : Russian

  612. Language : Russian

  613. Default : No

  614. Forced : No


  615. Text #26

  616. ID : 39

  617. Format : UTF-8

  618. Codec ID : S_TEXT/UTF8

  619. Codec ID/Info : UTF-8 Plain Text

  620. Duration : 1 h 32 min

  621. Bit rate : 19 b/s

  622. Count of elements : 430

  623. Stream size : 13.4 KiB (0%)

  624. Title : Spanish

  625. Language : Spanish

  626. Default : No

  627. Forced : No


  628. Text #27

  629. ID : 40

  630. Format : UTF-8

  631. Codec ID : S_TEXT/UTF8

  632. Codec ID/Info : UTF-8 Plain Text

  633. Duration : 1 h 32 min

  634. Bit rate : 19 b/s

  635. Count of elements : 430

  636. Stream size : 13.0 KiB (0%)

  637. Title : European Spanish

  638. Language : Spanish

  639. Default : No

  640. Forced : No


  641. Text #28

  642. ID : 41

  643. Format : UTF-8

  644. Codec ID : S_TEXT/UTF8

  645. Codec ID/Info : UTF-8 Plain Text

  646. Duration : 1 h 32 min

  647. Bit rate : 18 b/s

  648. Count of elements : 430

  649. Stream size : 12.6 KiB (0%)

  650. Title : Swedish

  651. Language : Swedish

  652. Default : No

  653. Forced : No


  654. Text #29

  655. ID : 42

  656. Format : UTF-8

  657. Codec ID : S_TEXT/UTF8

  658. Codec ID/Info : UTF-8 Plain Text

  659. Duration : 1 h 32 min

  660. Bit rate : 54 b/s

  661. Count of elements : 432

  662. Stream size : 37.0 KiB (0%)

  663. Title : Thai

  664. Language : Thai

  665. Default : No

  666. Forced : No


  667. Text #30

  668. ID : 43

  669. Format : UTF-8

  670. Codec ID : S_TEXT/UTF8

  671. Codec ID/Info : UTF-8 Plain Text

  672. Duration : 1 h 32 min

  673. Bit rate : 19 b/s

  674. Count of elements : 430

  675. Stream size : 13.5 KiB (0%)

  676. Title : Turkish

  677. Language : Turkish

  678. Default : No

  679. Forced : No


  680. Text #31

  681. ID : 44

  682. Format : UTF-8

  683. Codec ID : S_TEXT/UTF8

  684. Codec ID/Info : UTF-8 Plain Text

  685. Duration : 1 h 32 min

  686. Bit rate : 30 b/s

  687. Count of elements : 430

  688. Stream size : 20.9 KiB (0%)

  689. Title : Ukrainian

  690. Language : Ukrainian

  691. Default : No

  692. Forced : No


  693. Text #32

  694. ID : 45

  695. Format : UTF-8

  696. Codec ID : S_TEXT/UTF8

  697. Codec ID/Info : UTF-8 Plain Text

  698. Duration : 1 h 32 min

  699. Bit rate : 26 b/s

  700. Count of elements : 430

  701. Stream size : 18.1 KiB (0%)

  702. Title : Vietnamese

  703. Language : Vietnamese

  704. Default : No

  705. Forced : No



文件下载


除非特别注明,本文『王国:北方的阿信[简繁字幕]Kingdom.Ashin.of.the.North.2021.1080p.HDR.NF.WEB-DL.DDP5.1.Atmos.HEVC-迅雷下载 8.80GB』来源于互联网机器人自动抓取,非本站原创。 浮游电影网不对本文拥有版权,如有侵犯,请联系邮箱:fuyouu#yandex.com[#换成@]投诉。我们会在15个工作日内删除。 但烦请转载时请标明出处:“本文转载于『浮游电影网』,原文地址:https://www.fuyouu.com/13216.html

评论吧骚年!

发表你的见解   

昵称*

E-mail*(建议输入,以便收到博主回复的提示邮件)

验证码*

您可以使用eMule或eMule Mod(Windows)、aMule(Win、Linux、Mac)等软件下载eD2k链接。。
eMule收藏集(.emulecollection)文件是您选中的所有链接的列表文件。eMule可以直接下载它们。
按住SHIFT键选择可以选中多个选择框。
可用文件名和大小选择器来选择文件。
文件名选择器帮您根据文件名称或后缀来选择文件。不分大小写。
符号使用:
和:空格( )、+
不包含:-
或:|
转义:一对英文引号("");
匹配开头:^
匹配结尾:$
例如:
选中所有名称中包含有“eMule”或“0.49c”字眼,但不包含有“exe”字眼的:emule|0.49c -exe
选中所有名称的开头是“eMule”,结尾是“0.49c”的:^emule 0.49c$
选中所有名称中带有“eMule 0.49c”的(必须是“eMule 0.49c”,中间没有别的字符,不能是“eMule fake 0.49c”),需要转义:"emule 0.49c"
大小选择器帮您根据文件大小选择文件。