当前位置: 首页 >> 国产电影 >> 你是凶手.迅雷下载[WEB-MP4/9.55GB][4K-2160P][犯罪,悬疑,推理,中国大陆,翻拍,剧情] >> 正文

你是凶手.迅雷下载[WEB-MP4/9.55GB][4K-2160P][犯罪,悬疑,推理,中国大陆,翻拍,剧情]

2021年07月21日 11:09:43     电影发布:来源于网络     电影分类:国产电影     评论(0)    

你是凶手.迅雷下载[WEB MP4/9.55GB][4K 2160P][犯罪,悬疑,推理,中国大陆,翻拍,剧情] 犯罪片 悬疑片 国产电影  第1张

◎译 名 你是凶手 / 迷局英雄 / The Guilty Ones / The Convicted

◎年 代 2019

◎产 地 中国大陆

◎类 别 剧情 / 悬疑 / 犯罪

◎语 言 汉语普通话

◎上映日期 2019-11-22(中国大陆)

◎IMDb链接 https://www.imdb.com/title/tt10097530/

◎豆瓣评分 5.6/10 (38230人评价)

◎豆瓣链接 https://movie.douban.com/subject/26762744/

◎片 长 94分钟

◎导 演 王昱 Yu Wang (id:1300412)

◎编 剧 杜语 Yu Du (id:1357485)

◎演 员 王千源 Qianyuan Wang (id:1314827)

宋佳 Jia Song (id:1042341)

冯远征 Yuanzheng Feng (id:1043136)

李九霄 Jiuxiao Li (id:1330992)

何沄伟 Yunwei He (id:1313982)

石凉 Liang Shi (id:1313009)

张诣文含 Yiwenhan Zhang (id:1429675)

韩璐 Liz Han (id:1453964)

王昱 Yu Wang (id:1300412)

杨江 Jiang Yang (id:1351381)

赵楠 Nan Zhao (id:1325307)

◎标 签 犯罪 / 悬疑 / 推理 / 中国大陆 / 翻拍 / 剧情 / 2019 / 人性

◎简 介

10年前,白兰(宋佳 饰)女儿铃铛被绑架并意外身亡,重案组警官陈浩(王千源 饰)许诺孩子母亲一定将凶手绳之以法。无奈经过漫长的追查却一无所获,陈浩带着遗憾离开警队。10年后,陈浩偶然间发现新线索,身患绝症的白兰重拾希望,决心为女寻凶,两人展开调查并发现了罪犯留下的蛛丝马迹。与此同时,李爱军(冯远征 饰)外孙女也遭人绑架,绑架手法跟10年前如出一辙,面对狡猾的嫌犯,陈浩和白兰能否抓到凶手,一偿夙愿…

General

Complete name : 你是凶手.The.Convicted.2019.2160p.WEB-DL.H265.AAC-10003@BBQDDQ.COM.mp4

Format : MPEG-4

Format profile : Base Media

Codec ID : isom (isom/iso2/mp41)

File size : 9.55 GiB

Duration : 1 h 33 min

Overall bit rate : 14.6 Mb/s

Writing application : Lavf58.32.104

Video

ID : 1

Format : HEVC

Format/Info : High Efficiency Video Coding

Format profile : Main@L5@Main

Codec ID : hev1

Codec ID/Info : High Efficiency Video Coding

Duration : 1 h 33 min

Bit rate : 14.4 Mb/s

Width : 3 840 pixels

Height : 1 608 pixels

Display aspect ratio : 2.40:1

Frame rate mode : Constant

Frame rate : 24.000 FPS

Color space : YUV

Chroma subsampling : 4:2:0

Bit depth : 8 bits

Bits/(Pixel*Frame) : 0.097

Stream size : 9.42 GiB (99%)

Codec configuration box : hvcC

Audio

ID : 2

Format : AAC LC

Format/Info : Advanced Audio Codec Low Complexity

Codec ID : mp4a-40-2

Duration : 1 h 33 min

Bit rate mode : Constant

Bit rate : 192 kb/s

Channel(s) : 2 channels

Channel layout : L R

Sampling rate : 44.1 kHz

Frame rate : 43.066 FPS (1024 SPF)

Compression mode : Lossy

Stream size : 127 MiB (1%)

Default : Yes

Alternate group : 1



文件下载


除非特别注明,本文『你是凶手.迅雷下载[WEB-MP4/9.55GB][4K-2160P][犯罪,悬疑,推理,中国大陆,翻拍,剧情]』来源于互联网机器人自动抓取,非本站原创。 浮游电影网不对本文拥有版权,如有侵犯,请联系邮箱:fuyouu#yandex.com[#换成@]投诉。我们会在15个工作日内删除。 但烦请转载时请标明出处:“本文转载于『浮游电影网』,原文地址:https://www.fuyouu.com/13180.html

评论吧骚年!

发表你的见解   

昵称*

E-mail*(建议输入,以便收到博主回复的提示邮件)

验证码*

您可以使用eMule或eMule Mod(Windows)、aMule(Win、Linux、Mac)等软件下载eD2k链接。。
eMule收藏集(.emulecollection)文件是您选中的所有链接的列表文件。eMule可以直接下载它们。
按住SHIFT键选择可以选中多个选择框。
可用文件名和大小选择器来选择文件。
文件名选择器帮您根据文件名称或后缀来选择文件。不分大小写。
符号使用:
和:空格( )、+
不包含:-
或:|
转义:一对英文引号("");
匹配开头:^
匹配结尾:$
例如:
选中所有名称中包含有“eMule”或“0.49c”字眼,但不包含有“exe”字眼的:emule|0.49c -exe
选中所有名称的开头是“eMule”,结尾是“0.49c”的:^emule 0.49c$
选中所有名称中带有“eMule 0.49c”的(必须是“eMule 0.49c”,中间没有别的字符,不能是“eMule fake 0.49c”),需要转义:"emule 0.49c"
大小选择器帮您根据文件大小选择文件。