当前位置: 首页 >> 国产电影 >> 有一点动心[国语音轨]Tempting.Hearts.2021.WEB-DL.4K.H265.AAC.5.1-迅雷下载 10.91GB >> 正文

有一点动心[国语音轨]Tempting.Hearts.2021.WEB-DL.4K.H265.AAC.5.1-迅雷下载 10.91GB

2021年07月21日 10:53:47     电影发布:来源于网络     电影分类:国产电影     评论(0)    

有一点动心[国语音轨]Tempting.Hearts.2021.WEB DL.4K.H265.AAC.5.1 迅雷下载 10.91GB 爱情片 国产电影  第1张

◎译 名 有一点动心 / 相亲大作战

◎年 代 2021

◎产 地 中国大陆

◎类 别 爱情

◎语 言 汉语普通话

◎上映日期 2021-06-03(中国大陆)

◎IMDb链接 https://www.imdb.com/title/tt13556244/

◎豆瓣评分 4.5/10 (2732人评价)

◎豆瓣链接 https://movie.douban.com/subject/34454693/

◎片 长 94分钟

◎导 演 陈嘉上 Gordon Chan (id:1274245)

朱雪菲 Xuefei Zhu (id:1439808)

◎编 剧 陈嘉上 Gordon Chan (id:1274245)

吴晓洁 Xiaojie Wu (id:1426717)

朱雪菲 Xuefei Zhu (id:1439808)

林静璇 Jingxuan Lin (id:1439830)

◎演 员 言承旭 Jerry Yan (id:1014501)

任素汐 Suxi Ren (id:1362973)

柳岩 Yan Liu (id:1312846)

戚薇 Stephy Qi (id:1313916)

连凯 Andrew Lin (id:1122837)

汤加文 Carmen Tong (id:1358039)

曹扬 Yang Cao (id:1339294)

李欣烨 Xinye Li (id:1356952)

那威 Wei Na (id:1275600)

李勤勤 Qinqin Li (id:1274639)

王一宁 Yining Wang (id:1449838)

张琛 Chen Zhang (id:1394958)

张信哲 Jeff Chang (id:1198234)

周丹丹 Dandan Zhou (id:1455707)

◎标 签 言承旭 / 任素汐 / 爱情 / 张信哲 / 喜剧 / 2021 / 中国大陆 / 都市

◎简 介

周启文(言承旭 饰)创立的游戏公司因旗下员工直播的“渣男”言论引起全网声讨,被迫宣告破产,他带着兄弟们去找“始作俑者”相亲APP员工讨个说法。虽然打着成为对方客户,搅黄她们生意的坏主意,但周启文却被对方女老板陈然(任素汐 饰)安排得明明白白。在不断的相亲过程中,二人逐渐卸下了对彼此的敌意和伪装,互相的了解让二人间萌生情愫。在这越来越不敢爱的时代,周启文和陈然是会就此错过,还是能抓住命运不顾一切付出真心?

  1. General

  2. Unique ID : 276945693605335420588691639888020349360 (0xD059CCE8DF807900C5CBC3453D21A1B0)

  3. Complete name : Tempting.Hearts.2021.WEB-DL.4K.H265.AAC.5.1-10015@BBQDDQ.COM.mkv

  4. Format : Matroska

  5. Format version : Version 4

  6. File size : 10.9 GiB

  7. Duration : 1 h 34 min

  8. Overall bit rate : 16.5 Mb/s

  9. Encoded date : UTC 2021-07-19 08:36:01

  10. Writing application : mkvmerge v58.0.0 ('Supper's Ready') 64-bit

  11. Writing library : libebml v1.4.2 + libmatroska v1.6.4


  12. Video

  13. ID : 1

  14. Format : HEVC

  15. Format/Info : High Efficiency Video Coding

  16. Format profile : Main@L5@Main

  17. Codec ID : V_MPEGH/ISO/HEVC

  18. Duration : 1 h 34 min

  19. Bit rate : 16.2 Mb/s

  20. Width : 3 840 pixels

  21. Height : 1 608 pixels

  22. Display aspect ratio : 2.40:1

  23. Frame rate mode : Constant

  24. Frame rate : 24.000 FPS

  25. Color space : YUV

  26. Chroma subsampling : 4:2:0

  27. Bit depth : 8 bits

  28. Bits/(Pixel*Frame) : 0.109

  29. Stream size : 10.7 GiB (98%)

  30. Default : Yes

  31. Forced : No


  32. Audio #1

  33. ID : 2

  34. Format : AAC LC SBR

  35. Format/Info : Advanced Audio Codec Low Complexity with Spectral Band Replication

  36. Commercial name : HE-AAC

  37. Format settings : NBC

  38. Codec ID : A_AAC-5

  39. Duration : 1 h 34 min

  40. Bit rate : 132 kb/s

  41. Channel(s) : 6 channels

  42. Channel layout : C L R Ls Rs LFE

  43. Sampling rate : 48.0 kHz

  44. Frame rate : 23.438 FPS (2048 SPF)

  45. Compression mode : Lossy

  46. Stream size : 88.8 MiB (1%)

  47. Language : Chinese

  48. Default : Yes

  49. Forced : No


  50. Audio #2

  51. ID : 3

  52. Format : AAC LC

  53. Format/Info : Advanced Audio Codec Low Complexity

  54. Codec ID : A_AAC-2

  55. Duration : 1 h 34 min

  56. Bit rate : 192 kb/s

  57. Channel(s) : 2 channels

  58. Channel layout : L R

  59. Sampling rate : 44.1 kHz

  60. Frame rate : 43.066 FPS (1024 SPF)

  61. Compression mode : Lossy

  62. Stream size : 129 MiB (1%)

  63. Language : Chinese

  64. Default : No

  65. Forced : No



文件下载


除非特别注明,本文『有一点动心[国语音轨]Tempting.Hearts.2021.WEB-DL.4K.H265.AAC.5.1-迅雷下载 10.91GB』来源于互联网机器人自动抓取,非本站原创。 浮游电影网不对本文拥有版权,如有侵犯,请联系邮箱:fuyouu#yandex.com[#换成@]投诉。我们会在15个工作日内删除。 但烦请转载时请标明出处:“本文转载于『浮游电影网』,原文地址:https://www.fuyouu.com/13174.html

评论吧骚年!

发表你的见解   

昵称*

E-mail*(建议输入,以便收到博主回复的提示邮件)

验证码*

您可以使用eMule或eMule Mod(Windows)、aMule(Win、Linux、Mac)等软件下载eD2k链接。。
eMule收藏集(.emulecollection)文件是您选中的所有链接的列表文件。eMule可以直接下载它们。
按住SHIFT键选择可以选中多个选择框。
可用文件名和大小选择器来选择文件。
文件名选择器帮您根据文件名称或后缀来选择文件。不分大小写。
符号使用:
和:空格( )、+
不包含:-
或:|
转义:一对英文引号("");
匹配开头:^
匹配结尾:$
例如:
选中所有名称中包含有“eMule”或“0.49c”字眼,但不包含有“exe”字眼的:emule|0.49c -exe
选中所有名称的开头是“eMule”,结尾是“0.49c”的:^emule 0.49c$
选中所有名称中带有“eMule 0.49c”的(必须是“eMule 0.49c”,中间没有别的字符,不能是“eMule fake 0.49c”),需要转义:"emule 0.49c"
大小选择器帮您根据文件大小选择文件。