当前位置: 首页 >> 海外电影 >> 雾山[国语音轨]The.Foggy.Mountain.2020.2160p.WEB-DL.DD5.1.H265-迅雷下载 9.04GB >> 正文

雾山[国语音轨]The.Foggy.Mountain.2020.2160p.WEB-DL.DD5.1.H265-迅雷下载 9.04GB

2021年07月19日 11:11:27     电影发布:来源于网络     电影分类:海外电影     评论(0)    

雾山[国语音轨]The.Foggy.Mountain.2020.2160p.WEB DL.DD5.1.H265 迅雷下载 9.04GB 动作片 海外电影  第1张

◎译 名 雾山 / The Foggy Mountain

◎片 名 ??nh Mù S??ng

◎年 代 2020

◎产 地 越南

◎类 别 动作

◎语 言 越南语

◎上映日期 2020-07-17(越南)

◎IMDb链接 https://www.imdb.com/title/tt12719414/

◎豆瓣评分 3.6/10 (136人评价)

◎豆瓣链接 https://movie.douban.com/subject/35517350/

◎演 员 石金龙 Thach Kim Long (id:1385500)

◎标 签 动作 / 越南 / 复仇 / 犯罪 / 东亚影视 / 2020s / 剧情 / 暴力

◎简 介

因为妻子的意外身亡,皮(Phi)一位拳师,决定返回越南,为妻子报仇、血债血偿。在他越南家乡的村庄里,他不但确认了凶手是一个名叫巴劳的当地一霸,同时,还发现了隐藏在其背后的秘密。命运又一次让皮面临选择——是只身为妻子报仇?还是选择舍弃个人恩怨而保护家乡的村民?

  1. General

  2. Unique ID : 140379598432573083448290117477100898416 (0x699C2091815BD8C954236243679B4870)

  3. Complete name : 雾山.The.Foggy.Mountain.2020.2160p.WEB-DL.DD5.1.H265-10005@BBQDDQ.COM.mkv

  4. Format : Matroska

  5. Format version : Version 4

  6. File size : 9.04 GiB

  7. Duration : 1 h 26 min

  8. Overall bit rate : 14.9 Mb/s

  9. Encoded date : UTC 2021-07-07 11:56:25

  10. Writing application : mkvmerge v40.0.0 ('Old Town Road + Pony') 64-bit

  11. Writing library : libebml v1.3.9 + libmatroska v1.5.2


  12. Video

  13. ID : 3

  14. Format : HEVC

  15. Format/Info : High Efficiency Video Coding

  16. Format profile : Main@L5@Main

  17. Codec ID : V_MPEGH/ISO/HEVC

  18. Duration : 1 h 26 min

  19. Bit rate : 14.4 Mb/s

  20. Width : 3 840 pixels

  21. Height : 1 616 pixels

  22. Display aspect ratio : 2.40:1

  23. Frame rate mode : Constant

  24. Frame rate : 24.000 FPS

  25. Color space : YUV

  26. Chroma subsampling : 4:2:0

  27. Bit depth : 8 bits

  28. Bits/(Pixel*Frame) : 0.097

  29. Stream size : 8.73 GiB (97%)

  30. Default : Yes

  31. Forced : No


  32. Audio #1

  33. ID : 1

  34. Format : E-AC-3

  35. Format/Info : Enhanced AC-3

  36. Commercial name : Dolby Digital Plus

  37. Codec ID : A_EAC3

  38. Duration : 1 h 26 min

  39. Bit rate mode : Constant

  40. Bit rate : 256 kb/s

  41. Channel(s) : 6 channels

  42. Channel layout : L R C LFE Ls Rs

  43. Sampling rate : 48.0 kHz

  44. Frame rate : 31.250 FPS (1536 SPF)

  45. Compression mode : Lossy

  46. Stream size : 159 MiB (2%)

  47. Title : Mandarin

  48. Language : Chinese

  49. Service kind : Complete Main

  50. Default : Yes

  51. Forced : No


  52. Audio #2

  53. ID : 2

  54. Format : E-AC-3

  55. Format/Info : Enhanced AC-3

  56. Commercial name : Dolby Digital Plus

  57. Codec ID : A_EAC3

  58. Duration : 1 h 26 min

  59. Bit rate mode : Constant

  60. Bit rate : 256 kb/s

  61. Channel(s) : 6 channels

  62. Channel layout : L R C LFE Ls Rs

  63. Sampling rate : 48.0 kHz

  64. Frame rate : 31.250 FPS (1536 SPF)

  65. Compression mode : Lossy

  66. Stream size : 159 MiB (2%)

  67. Language : Vietnamese

  68. Service kind : Complete Main

  69. Default : No

  70. Forced : No


文件下载


除非特别注明,本文『雾山[国语音轨]The.Foggy.Mountain.2020.2160p.WEB-DL.DD5.1.H265-迅雷下载 9.04GB』来源于互联网机器人自动抓取,非本站原创。 浮游电影网不对本文拥有版权,如有侵犯,请联系邮箱:fuyouu#yandex.com[#换成@]投诉。我们会在15个工作日内删除。 但烦请转载时请标明出处:“本文转载于『浮游电影网』,原文地址:https://www.fuyouu.com/13142.html

评论吧骚年!

发表你的见解   

昵称*

E-mail*(建议输入,以便收到博主回复的提示邮件)

验证码*

您可以使用eMule或eMule Mod(Windows)、aMule(Win、Linux、Mac)等软件下载eD2k链接。。
eMule收藏集(.emulecollection)文件是您选中的所有链接的列表文件。eMule可以直接下载它们。
按住SHIFT键选择可以选中多个选择框。
可用文件名和大小选择器来选择文件。
文件名选择器帮您根据文件名称或后缀来选择文件。不分大小写。
符号使用:
和:空格( )、+
不包含:-
或:|
转义:一对英文引号("");
匹配开头:^
匹配结尾:$
例如:
选中所有名称中包含有“eMule”或“0.49c”字眼,但不包含有“exe”字眼的:emule|0.49c -exe
选中所有名称的开头是“eMule”,结尾是“0.49c”的:^emule 0.49c$
选中所有名称中带有“eMule 0.49c”的(必须是“eMule 0.49c”,中间没有别的字符,不能是“eMule fake 0.49c”),需要转义:"emule 0.49c"
大小选择器帮您根据文件大小选择文件。