当前位置: 首页 >> 欧美电影 >> 惩罚者[双语字幕]The.Punisher.2004.2160p.HDR.UHD.BluRay.TrueHD.7.1.Atmos.x265-10bit-迅雷下载 16.54GB >> 正文

惩罚者[双语字幕]The.Punisher.2004.2160p.HDR.UHD.BluRay.TrueHD.7.1.Atmos.x265-10bit-迅雷下载 16.54GB

2021年07月18日 08:57:59     电影发布:来源于网络     电影分类:欧美电影     评论(0)    

惩罚者[双语字幕]The.Punisher.2004.2160p.HDR.UHD.BluRay.TrueHD.7.1.Atmos.x265 10bit 迅雷下载 16.54GB 犯罪片 惊悚片 动作片 剧情片 欧美电影 第1张

◎译 名 惩罚者 / 神鬼制裁 / 制裁者

◎片 名 The Punisher

◎年 代 2004

◎产 地 美国 / 德国

◎类 别 剧情 / 动作 / 惊悚 / 犯罪

◎语 言 英语

◎上映日期 2004-04-16(美国)

◎IMDb链接 https://www.imdb.com/title/tt0330793/

◎豆瓣评分 6.5/10 (15176人评价)

◎豆瓣链接 https://movie.douban.com/subject/1305686/

◎片 长 124分钟

◎导 演 乔纳森·汉斯雷 Jonathan Hensleigh (id:1286460)

◎编 剧 乔纳森·汉斯雷 Jonathan Hensleigh (id:1286460)

迈克尔·弗朗斯 Michael France (id:1284080)

◎演 员 托马斯·简 Thomas Jane (id:1031816)

约翰·特拉沃尔塔 John Travolta (id:1054426)

威尔·帕顿 Will Patton (id:1019066)

丽贝卡·罗梅恩 Rebecca Romijn (id:1040527)

本·福斯特 Ben Foster (id:1040512)

Charleene Closshey (id:1258429)

Marcus Johns (id:1222270)

Kassie Spielman (id:1227842)

Heather Trzyna (id:1229284)

詹姆斯·卡佩内罗 James Carpinello (id:1022778)

埃迪·杰米森 Eddie Jemison (id:1287666)

劳拉·哈灵 Laura Harring (id:1031883)

马特·托蒂 Matt Totty (id:1349054)

John Lynch John Lynch (id:1218665)

Vincent Lecavalier Vincent Lecavalier (id:1199044)

John Baker John Baker (id:1210574)

Darla Delgado Darla Delgado (id:1205328)

Russell Hess Russell Hess (id:1203497)

吉姆·麦司奇门 Jim Meskimen (id:1055696)

萨曼莎·玛西丝 Samantha Mathis (id:1048132)

马科·圣约翰 Marco St. John (id:1045298)

罗伊·谢德 Roy Scheider (id:1041132)

艾杜亚多·雅内兹 Eduardo Yá?ez (id:1027493)

Mark Collie Mark Collie (id:1074200)

杰夫·蔡斯 Jeff Chase (id:1076111)

Hatcher Flaschen Hatcher Flaschen (id:1186199)

Jillian Kinsman Jillian Kinsman (id:1177218)

Yamil Piedra Yamil Piedra (id:1175427)

Walter Medina Walter Medina (id:1173229)

迈克尔·里尔登 Michael Reardon (id:1139680)

John Pinette John Pinette (id:1134656)

尼克·罗兰 Nick Loren (id:1120203)

马克·麦考利 Marc Macaulay (id:1116920)

Michael Thomas Dunn Michael Thomas Dunn (id:1089037)

Russell Durham Comegys Russell Durham Comegys (id:1085896)

凯文·纳什 Kevin Nash (id:1010684)

克里斯·罗伯茨 Chris Roberts (id:1147018)

约翰·H·斯塔克 John H. Starke (id:1298278)

盖尔·安妮·赫德 Gale Anne Hurd (id:1040812)

斯坦·李 Stan Lee (id:1013888)

卡尔洛·西利奥托 Carlo Siliotto (id:1016956)

康拉德·W·霍尔 Conrad W. Hall (id:1041863)

史蒂夫·肯珀 Steven Kemper (id:1288378)

Pam Dixon Pam Dixon (id:1282494)

Michael Z. Hanan Michael Z. Hanan (id:1094137)

约翰·德克斯特 John Dexter (id:1282341)

Michele Baylis Michele Baylis (id:1278127)

米歇尔·布勒 Michelle Bühler (id:1279844)

马修·W.蒙格儿 Matthew W. Mungle (id:1131227)

约兰达·塔辛 Yolanda Toussieng (id:1299453)

加里·海姆斯 Gary Hymes (id:1287237)

大卫·萨迪 David Sardi (id:1296704)

Christian Clarke Christian Clarke (id:1051738)

小吉恩·沃伦 Gene Warren Jr. (id:1300455)

Andrew Shuford Andrew Shuford (id:1187488)

托尼·马加莱塔 Tony Magaletta (id:1124827)

Gene Warren III Gene Warren III (id:1013356)

Carl Beyer Carl Beyer (id:1011923)

◎标 签 动作 / 美国 / 暴力 / 漫画改编 / 犯罪 / 复仇 / 美国电影 / 2004

◎简 介

弗兰克·卡斯特(托马斯·简 Thomas Jane 饰)的生命中,绝大部分时间都在于死神赛跑。早年在海军陆战队服役,退役后又进入FBI。在枪炮火光中生活了多年之后,弗兰克不愿再整日收到死亡的威胁,家人整日为他担惊受怕。所以,他决定提前退休与妻儿享受平静的生活。可是,在最后的一次任务中,却因意外使一名无辜青年死亡。而这名青年的父亲却是坦帕市的大富商霍华德·桑特(约翰·特拉沃塔 John Travolta 饰)。为了给儿子报仇,霍华德向黑市发出了对弗兰克一家的绞杀令。不过弗兰克却侥幸在这场浩劫中存活下来。为了报仇,弗兰克不再寄望于法制,而是全副武装向霍华德发起挑战。面对霍华德组建的私人军队,弗兰克凭一己之力将如何应对?

  1. General

  2. Unique ID : 258928457920714179156934948226790721265 (0xC2CBCE9B3EBB348A37DEE47B220E06F1)

  3. Complete name : The.Punisher.2004.2160p.HDR.UHD.BluRay.TrueHD.7.1.Atmos.x265-10bit-10007@BBQDDQ.COM.mkv

  4. Format : Matroska

  5. Format version : Version 4

  6. File size : 16.5 GiB

  7. Duration : 2 h 3 min

  8. Overall bit rate mode : Variable

  9. Overall bit rate : 19.2 Mb/s

  10. Movie name : The Punisher 2004 2160p HDR UHD BluRay TrueHD 7.1 Atmos x265-10bit-10007@BBQDDQ.COM

  11. Encoded date : UTC 2021-07-16 15:47:45

  12. Writing application : mkvmerge v38.0.0 ('The Silent Type') 64-bit

  13. Writing library : libebml v1.3.9 + libmatroska v1.5.2


  14. Video

  15. ID : 1

  16. Format : HEVC

  17. Format/Info : High Efficiency Video Coding

  18. Format profile : Main 10@L5.1@High

  19. HDR format : SMPTE ST 2086, HDR10 compatible

  20. Codec ID : V_MPEGH/ISO/HEVC

  21. Duration : 2 h 3 min

  22. Bit rate : 14.7 Mb/s

  23. Width : 3 840 pixels

  24. Height : 1 632 pixels

  25. Display aspect ratio : 2.35:1

  26. Frame rate mode : Constant

  27. Frame rate : 23.976 (24000/1001/53354) FPS

  28. Color space : YUV

  29. Chroma subsampling : 4:2:0

  30. Bit depth : 10 bits

  31. Bits/(Pixel*Frame) : 0.098

  32. Stream size : 12.7 GiB (77%)

  33. Title : @HDSky

  34. Writing library : x265 - H.265/HEVC codec

  35. Default : Yes

  36. Forced : No

  37. Color range : Limited

  38. Color primaries : BT.2020

  39. Transfer characteristics : PQ

  40. Matrix coefficients : BT.2020 non-constant

  41. Mastering display color primaries : Display P3

  42. Mastering display luminance : min: 0.0020 cd/m2, max: 1000 cd/m2

  43. Maximum Content Light Level : 739 cd/m2

  44. Maximum Frame-Average Light Level : 331 cd/m2


  45. Audio

  46. ID : 2

  47. Format : MLP FBA 16-ch

  48. Format/Info : Meridian Lossless Packing FBA with 16-channel presentation

  49. Commercial name : Dolby TrueHD with Dolby Atmos

  50. Codec ID : A_TRUEHD

  51. Duration : 2 h 3 min

  52. Bit rate mode : Variable

  53. Bit rate : 4 353 kb/s

  54. Maximum bit rate : 7 194 kb/s

  55. Channel(s) : 8 channels

  56. Channel layout : L R C LFE Ls Rs Lb Rb

  57. Sampling rate : 48.0 kHz

  58. Frame rate : 1 200.000 FPS (40 SPF)

  59. Compression mode : Lossless

  60. Stream size : 3.76 GiB (23%)

  61. Title : English

  62. Language : English

  63. Default : Yes

  64. Forced : No

  65. Number of dynamic objects : 15

  66. Bed channel count : 1 channel

  67. Bed channel configuration : LFE


  68. Text #1

  69. ID : 3

  70. Format : PGS

  71. Muxing mode : zlib

  72. Codec ID : S_HDMV/PGS

  73. Codec ID/Info : Picture based subtitle format used on BDs/HD-DVDs

  74. Duration : 2 h 1 min

  75. Bit rate : 26.1 kb/s

  76. Count of elements : 2554

  77. Stream size : 22.7 MiB (0%)

  78. Title : ENG

  79. Language : English

  80. Default : Yes

  81. Forced : No


  82. Text #2

  83. ID : 4

  84. Format : PGS

  85. Muxing mode : zlib

  86. Codec ID : S_HDMV/PGS

  87. Codec ID/Info : Picture based subtitle format used on BDs/HD-DVDs

  88. Duration : 2 h 1 min

  89. Bit rate : 16.6 kb/s

  90. Count of elements : 1967

  91. Stream size : 14.4 MiB (0%)

  92. Title : CHS

  93. Language : Chinese

  94. Default : No

  95. Forced : No


  96. Text #3

  97. ID : 5

  98. Format : PGS

  99. Muxing mode : zlib

  100. Codec ID : S_HDMV/PGS

  101. Codec ID/Info : Picture based subtitle format used on BDs/HD-DVDs

  102. Duration : 2 h 1 min

  103. Bit rate : 16.8 kb/s

  104. Count of elements : 1967

  105. Stream size : 14.6 MiB (0%)

  106. Title : CHT

  107. Language : Chinese

  108. Default : No

  109. Forced : No


  110. Text #4

  111. ID : 6

  112. Format : PGS

  113. Muxing mode : zlib

  114. Codec ID : S_HDMV/PGS

  115. Codec ID/Info : Picture based subtitle format used on BDs/HD-DVDs

  116. Duration : 2 h 1 min

  117. Bit rate : 29.7 kb/s

  118. Count of elements : 1977

  119. Stream size : 25.7 MiB (0%)

  120. Title : CHS&ENG

  121. Language : Chinese

  122. Default : No

  123. Forced : No


  124. Text #5

  125. ID : 7

  126. Format : PGS

  127. Muxing mode : zlib

  128. Codec ID : S_HDMV/PGS

  129. Codec ID/Info : Picture based subtitle format used on BDs/HD-DVDs

  130. Duration : 2 h 1 min

  131. Bit rate : 29.9 kb/s

  132. Count of elements : 1977

  133. Stream size : 25.9 MiB (0%)

  134. Title : CHT&ENG

  135. Language : Chinese

  136. Default : No

  137. Forced : No


  138. Menu

  139. 00:00:00.000 : en:Chapter 01

  140. 00:06:19.087 : en:Chapter 02

  141. 00:06:19.170 : en:Chapter 03

  142. 00:11:01.744 : en:Chapter 04

  143. 00:11:01.828 : en:Chapter 05

  144. 00:19:25.539 : en:Chapter 06

  145. 00:19:25.623 : en:Chapter 07

  146. 00:24:11.700 : en:Chapter 08

  147. 00:24:11.784 : en:Chapter 09

  148. 00:35:23.747 : en:Chapter 10

  149. 00:35:23.830 : en:Chapter 11

  150. 00:43:15.927 : en:Chapter 12

  151. 00:43:16.010 : en:Chapter 13

  152. 00:48:33.786 : en:Chapter 14

  153. 00:48:33.869 : en:Chapter 15

  154. 00:55:21.193 : en:Chapter 16

  155. 00:55:21.276 : en:Chapter 17

  156. 01:07:20.370 : en:Chapter 18

  157. 01:07:20.453 : en:Chapter 19

  158. 01:14:36.138 : en:Chapter 20

  159. 01:14:36.222 : en:Chapter 21

  160. 01:20:29.074 : en:Chapter 22

  161. 01:20:29.158 : en:Chapter 23

  162. 01:27:54.019 : en:Chapter 24

  163. 01:27:54.102 : en:Chapter 25

  164. 01:34:19.821 : en:Chapter 26

  165. 01:34:19.904 : en:Chapter 27



文件下载


除非特别注明,本文『惩罚者[双语字幕]The.Punisher.2004.2160p.HDR.UHD.BluRay.TrueHD.7.1.Atmos.x265-10bit-迅雷下载 16.54GB』来源于互联网机器人自动抓取,非本站原创。 浮游电影网不对本文拥有版权,如有侵犯,请联系邮箱:fuyouu#yandex.com[#换成@]投诉。我们会在15个工作日内删除。 但烦请转载时请标明出处:“本文转载于『浮游电影网』,原文地址:https://www.fuyouu.com/13127.html

评论吧骚年!

发表你的见解   

昵称*

E-mail*(建议输入,以便收到博主回复的提示邮件)

验证码*

您可以使用eMule或eMule Mod(Windows)、aMule(Win、Linux、Mac)等软件下载eD2k链接。。
eMule收藏集(.emulecollection)文件是您选中的所有链接的列表文件。eMule可以直接下载它们。
按住SHIFT键选择可以选中多个选择框。
可用文件名和大小选择器来选择文件。
文件名选择器帮您根据文件名称或后缀来选择文件。不分大小写。
符号使用:
和:空格( )、+
不包含:-
或:|
转义:一对英文引号("");
匹配开头:^
匹配结尾:$
例如:
选中所有名称中包含有“eMule”或“0.49c”字眼,但不包含有“exe”字眼的:emule|0.49c -exe
选中所有名称的开头是“eMule”,结尾是“0.49c”的:^emule 0.49c$
选中所有名称中带有“eMule 0.49c”的(必须是“eMule 0.49c”,中间没有别的字符,不能是“eMule fake 0.49c”),需要转义:"emule 0.49c"
大小选择器帮您根据文件大小选择文件。