当前位置: 首页 >> 欧美电影 >> 赤胆屠龙[中文字幕]Rio.Bravo.1959.1080p.BluRay.x264.DTS-迅雷下载 11.91GB >> 正文

赤胆屠龙[中文字幕]Rio.Bravo.1959.1080p.BluRay.x264.DTS-迅雷下载 11.91GB

2021年07月18日 08:56:26     电影发布:来源于网络     电影分类:欧美电影     评论(0)    

赤胆屠龙[中文字幕]Rio.Bravo.1959.1080p.BluRay.x264.DTS 迅雷下载 11.91GB 西部 爱情片 喜剧片 剧情片 欧美电影  第1张

◎译 名 赤胆屠龙 / 赤胆威龙

◎片 名 Rio Bravo

◎年 代 1959

◎产 地 美国

◎类 别 剧情 / 喜剧 / 爱情 / 西部

◎语 言 英语 / 西班牙语

◎上映日期 1959-03-18

◎IMDb链接 https://www.imdb.com/title/tt0053221/

◎豆瓣评分 8.1/10 (3690人评价)

◎豆瓣链接 https://movie.douban.com/subject/1298497/

◎片 长 141 分钟

◎导 演 霍华德·霍克斯 Howard Hawks (id:1019118)

◎编 剧 利·布拉克特 Leigh Brackett (id:1037061)

朱尔斯·福瑟曼 Jules Furthman (id:1033226)

◎演 员 约翰·韦恩 John Wayne (id:1017917)

迪恩·马丁 Dean Martin (id:1017938)

瑞奇·尼尔森 Ricky Nelson (id:1045077)

安吉·迪金森 Angie Dickinson (id:1031750)

沃尔特·布伦南 Walter Brennan (id:1025250)

Joe Gray Joe Gray (id:1095645)

罗伯特·东纳 Robert Donner (id:1087073)

弗莱德·格兰姆 Fred Graham (id:1101753)

乔治布鲁格曼 George Bruggeman (id:1072180)

佩德罗·冈萨雷斯·冈萨雷斯 Pedro Gonzalez Gonzalez (id:1096141)

Eugene Iglesias Eugene Iglesias (id:1106086)

汤姆·梦露 Tom Monroe (id:1119375)

戈登·米切尔 Gordon Mitchell (id:1122086)

查克·罗伯森 Chuck Roberson (id:1141110)

约翰·罗素 John Russell (id:1142344)

迪恩史密斯 Dean Smith (id:1150982)

谢布·伍利 Sheb Wooley (id:1164353)

鲍勃·斯蒂尔 Bob Steele (id:1154607)

Walter Barnes Walter Barnes (id:1065110)

艾丝苔蕾塔·罗德里格兹 Estelita Rodriguez (id:1012599)

克劳德·艾金斯 Claude Akins (id:1019120)

小哈里·凯瑞 Harry Carey Jr. (id:1048213)

Bing Russell Bing Russell (id:1048264)

迈伦·希里 Myron Healey (id:1054261)

亚基马·坎纳特 Yakima Canutt (id:1054318)

马尔科姆·阿特伯里 Malcolm Atterbury (id:1058930)

内斯顿布什 Nesdon Booth (id:1062716)

沃德·邦德 Ward Bond (id:1002795)

霍华德·霍克斯 Howard Hawks (id:1019118)

迪米特里·迪奥姆金 Dimitri Tiomkin (id:1048339)

拉塞尔·哈伦 Russell Harlan (id:1051039)

福尔马·布朗斯泰兹 Folmar Blangsted (id:1029980)

拉尔夫·S·赫斯特 Ralph S. Hurst (id:1114593)

Leo K. Kuter Leo K. Kuter (id:1035875)

玛约莉·拜斯特 Marjorie Best (id:1003953)

Gordon Bau Gordon Bau (id:1065372)

Paul Helmick Paul Helmick (id:1006700)

◎标 签 美国 / 西部片 / 西部 / 霍华德·霍克斯 / 1959 / 约翰韦恩 / 美国电影 / 1950s

◎简 介

德克萨斯的一个镇上,警长John T Chance(约翰·韦恩 John Wayne饰)和副警长酒鬼Dude(迪恩·马丁 Dean Martin饰)将作恶多端的Joe Burdette绳之以法,并将其关在监狱里,和另一个警员瘸腿的Stumpy (沃尔特·布伦南 Walter Brennan 饰)一起看守,等待几天后审讯官的到来。此时,Chance的老友Pat Wheeler正好路经此地,并介绍Chance认识了一个叫Colorado Ryan(瑞奇·尼尔森 Ricky Nelson 饰)的男孩。而Chance也在一个酒店里认识了一个叫Feather(安吉·迪金森 Angie Dickinson 饰)的女人。Joe的哥哥Nathan带着人要来劫狱,先是派人杀死了Pat,又多次想要以Dude来威胁Chance放人。Chance等人与其斗智斗勇,在这个过程...

  1. General

  2. Unique ID : 18943229976949921177850019753575129321 (0xE405558C2424FE7396B502696AD20E9)

  3. Complete name : Rio.Bravo.1959.1080p.BluRay.x264.DTS-10009@BBQDDQ.COM.mkv

  4. Format : Matroska

  5. Format version : Version 4

  6. File size : 11.9 GiB

  7. Duration : 2 h 21 min

  8. Overall bit rate : 12.1 Mb/s

  9. Encoded date : UTC 2021-07-16 06:24:16

  10. Writing application : mkvmerge v57.0.0 ('Till The End') 64-bit

  11. Writing library : libebml v1.4.2 + libmatroska v1.6.4

  12. Attachments : WenQuanWeiMiHei-1.ttf / WenQuanWeiMiHei-1.ttf


  13. Video

  14. ID : 1

  15. Format : AVC

  16. Format/Info : Advanced Video Codec

  17. Format profile : High@L4.1

  18. Format settings : CABAC / 4 Ref Frames

  19. Format settings, CABAC : Yes

  20. Format settings, Reference frames : 4 frames

  21. Codec ID : V_MPEG4/ISO/AVC

  22. Duration : 2 h 21 min

  23. Bit rate : 11.3 Mb/s

  24. Width : 1 920 pixels

  25. Height : 1 080 pixels

  26. Display aspect ratio : 16:9

  27. Frame rate mode : Constant

  28. Frame rate : 23.976 (24000/1001/53354) FPS

  29. Color space : YUV

  30. Chroma subsampling : 4:2:0

  31. Bit depth : 8 bits

  32. Scan type : Progressive

  33. Bits/(Pixel*Frame) : 0.226

  34. Stream size : 11.1 GiB (93%)

  35. Writing library : x264 core 164 r3065+55M 280faca t_mod_New [(8 & 10)-bit@all X86_64]

  36. Encoding settings : cabac=1 / ref=4 / deblock=1:-3:-3 / analyse=0x3:0x133 / me=umh / subme=11 / psy=1 / fade_compensate=0.00 / psy_rd=1.00:0.00 / mixed_ref=1 / me_range=48 / chroma_me=1 / trellis=2 / 8x8dct=1 / cqm=0 / deadzone=21,11 / fast_pskip=0 / chroma_qp_offset=-3 / threads=34 / lookahead_threads=8 / sliced_threads=0 / nr=0 / decimate=0 / interlaced=0 / NTMzNTQ= / bluray_compat=0 / constrained_intra=0 / fgo=0 / bframes=11 / b_pyramid=2 / b_adapt=2 / b_bias=0 / direct=3 / weightb=1 / open_gop=0 / weightp=2 / keyint=240 / keyint_min=1 / NTMzNTQ=uuDQuD2mJt9fsCf / scenecut=40 / intra_refresh=0 / rc_lookahead=72 / rc=crf / mbtree=0 / crf=19.5000 / qcomp=0.65 / qpmin=0:0:0 / qpmax=69:69:69 / qpstep=4 / vbv_maxrate=62500 / vbv_bufsize=78125 / crf_max=0.0 / nal_hrd=none / filler=0 / NTMzNTQ=LmsMAP37EqsCpk / ip_ratio=1.40 / pb_ratio=1.30 / aq=3:0.70 / aq-sensitivity=10.00 / aq-factor=1.00:1.00:1.00 / aq2=0 / aq3=0

  37. Language : English

  38. Default : Yes

  39. Forced : No


  40. Audio

  41. ID : 2

  42. ID in the original source medium : 4352 (0x1100)

  43. Format : DTS

  44. Format/Info : Digital Theater Systems

  45. Codec ID : A_DTS

  46. Duration : 2 h 21 min

  47. Bit rate mode : Constant

  48. Bit rate : 768 kb/s

  49. Channel(s) : 1 channel

  50. Channel layout : C

  51. Sampling rate : 48.0 kHz

  52. Frame rate : 93.750 FPS (512 SPF)

  53. Bit depth : 24 bits

  54. Compression mode : Lossy

  55. Stream size : 775 MiB (6%)

  56. Language : English

  57. Default : Yes

  58. Forced : No

  59. Original source medium : Blu-ray


  60. Text #1

  61. ID : 3

  62. ID in the original source medium : 4621 (0x120D)

  63. Format : PGS

  64. Muxing mode : zlib

  65. Codec ID : S_HDMV/PGS

  66. Codec ID/Info : Picture based subtitle format used on BDs/HD-DVDs

  67. Duration : 2 h 20 min

  68. Bit rate : 29.3 kb/s

  69. Count of elements : 3876

  70. Stream size : 29.4 MiB (0%)

  71. Title : chs

  72. Language : Chinese

  73. Default : Yes

  74. Forced : No

  75. Original source medium : Blu-ray


  76. Text #2

  77. ID : 4

  78. ID in the original source medium : 4622 (0x120E)

  79. Format : PGS

  80. Muxing mode : zlib

  81. Codec ID : S_HDMV/PGS

  82. Codec ID/Info : Picture based subtitle format used on BDs/HD-DVDs

  83. Duration : 2 h 20 min

  84. Bit rate : 29.6 kb/s

  85. Count of elements : 3876

  86. Stream size : 29.7 MiB (0%)

  87. Title : cht

  88. Language : Chinese

  89. Default : No

  90. Forced : No

  91. Original source medium : Blu-ray


  92. Text #3

  93. ID : 5

  94. ID in the original source medium : 4608 (0x1200)

  95. Format : PGS

  96. Muxing mode : zlib

  97. Codec ID : S_HDMV/PGS

  98. Codec ID/Info : Picture based subtitle format used on BDs/HD-DVDs

  99. Duration : 2 h 19 min

  100. Bit rate : 40.8 kb/s

  101. Count of elements : 4234

  102. Stream size : 40.7 MiB (0%)

  103. Language : English

  104. Default : No

  105. Forced : No

  106. Original source medium : Blu-ray


  107. Menu

  108. 00:00:00.000 : 第 01 章

  109. 00:01:25.085 : 第 02 章

  110. 00:03:59.739 : 第 03 章

  111. 00:05:22.989 : 第 04 章

  112. 00:09:53.134 : 第 05 章

  113. 00:12:05.933 : 第 06 章

  114. 00:14:41.672 : 第 07 章

  115. 00:18:00.079 : 第 08 章

  116. 00:23:19.398 : 第 09 章

  117. 00:26:55.280 : 第 10 章

  118. 00:28:42.345 : 第 11 章

  119. 00:32:36.955 : 第 12 章

  120. 00:34:57.887 : 第 13 章

  121. 00:36:32.690 : 第 14 章

  122. 00:39:36.499 : 第 15 章

  123. 00:45:30.853 : 第 16 章

  124. 00:48:33.911 : 第 17 章

  125. 00:52:53.962 : 第 18 章

  126. 00:56:26.466 : 第 19 章

  127. 01:00:27.915 : 第 20 章

  128. 01:05:08.529 : 第 21 章

  129. 01:09:11.397 : 第 22 章

  130. 01:12:27.676 : 第 23 章

  131. 01:17:10.584 : 第 24 章

  132. 01:23:00.809 : 第 25 章

  133. 01:25:31.584 : 第 26 章

  134. 01:29:17.185 : 第 27 章

  135. 01:32:42.640 : 第 28 章

  136. 01:35:35.438 : 第 29 章

  137. 01:38:52.092 : 第 30 章

  138. 01:41:03.515 : 第 31 章

  139. 01:44:50.784 : 第 32 章

  140. 01:47:04.876 : 第 33 章

  141. 01:49:40.031 : 第 34 章

  142. 01:53:33.765 : 第 35 章

  143. 01:57:25.955 : 第 36 章

  144. 02:01:50.594 : 第 37 章

  145. 02:04:50.274 : 第 38 章

  146. 02:09:07.948 : 第 39 章

  147. 02:12:52.422 : 第 40 章

  148. 02:16:24.467 : 第 41 章



文件下载


除非特别注明,本文『赤胆屠龙[中文字幕]Rio.Bravo.1959.1080p.BluRay.x264.DTS-迅雷下载 11.91GB』来源于互联网机器人自动抓取,非本站原创。 浮游电影网不对本文拥有版权,如有侵犯,请联系邮箱:fuyouu#yandex.com[#换成@]投诉。我们会在15个工作日内删除。 但烦请转载时请标明出处:“本文转载于『浮游电影网』,原文地址:https://www.fuyouu.com/13126.html

评论吧骚年!

发表你的见解   

昵称*

E-mail*(建议输入,以便收到博主回复的提示邮件)

验证码*

您可以使用eMule或eMule Mod(Windows)、aMule(Win、Linux、Mac)等软件下载eD2k链接。。
eMule收藏集(.emulecollection)文件是您选中的所有链接的列表文件。eMule可以直接下载它们。
按住SHIFT键选择可以选中多个选择框。
可用文件名和大小选择器来选择文件。
文件名选择器帮您根据文件名称或后缀来选择文件。不分大小写。
符号使用:
和:空格( )、+
不包含:-
或:|
转义:一对英文引号("");
匹配开头:^
匹配结尾:$
例如:
选中所有名称中包含有“eMule”或“0.49c”字眼,但不包含有“exe”字眼的:emule|0.49c -exe
选中所有名称的开头是“eMule”,结尾是“0.49c”的:^emule 0.49c$
选中所有名称中带有“eMule 0.49c”的(必须是“eMule 0.49c”,中间没有别的字符,不能是“eMule fake 0.49c”),需要转义:"emule 0.49c"
大小选择器帮您根据文件大小选择文件。