当前位置: 首页 >> 欧美电影 >> 太空异旅[中文字幕]Voyagers.2021.2160p.HDR.UHD.BluRay.TrueHD.5.1.x265-10bit-迅雷下载 10.53GB >> 正文

太空异旅[中文字幕]Voyagers.2021.2160p.HDR.UHD.BluRay.TrueHD.5.1.x265-10bit-迅雷下载 10.53GB

2021年07月18日 08:51:02     电影发布:来源于网络     电影分类:欧美电影     评论(0)    

太空异旅[中文字幕]Voyagers.2021.2160p.HDR.UHD.BluRay.TrueHD.5.1.x265 10bit 迅雷下载 10.53GB 科幻片 冒险片 惊悚片 欧美电影  第1张

◎译 名 太空异旅 / 一级任务(台) / 迷惘星空 / 旅行者 / 远航者

◎片 名 Voyagers

◎年 代 2021

◎产 地 美国 / 捷克 / 罗马尼亚 / 英国

◎类 别 科幻 / 惊悚 / 冒险

◎语 言 英语

◎上映日期 2021-04-09(美国)

◎IMDb链接 https://www.imdb.com/title/tt9664108/

◎豆瓣评分 5.3/10 (2419人评价)

◎豆瓣链接 https://movie.douban.com/subject/33426211/

◎片 长 108分钟

◎导 演 尼尔·博格 Neil Burger (id:1303891)

◎编 剧 尼尔·博格 Neil Burger (id:1303891)

◎演 员 泰伊·谢里丹 Tye Sheridan (id:1328390)

莉莉-罗丝·德普 Lily-Rose Melody Depp (id:1342384)

菲恩·怀特海德 Fionn Whitehead (id:1355522)

科林·法瑞尔 Colin Farrell (id:1084255)

香缇·亚当斯 Chanté Adams (id:1390683)

伊萨克·亨普斯特德-怀特 Isaac Hempstead-Wright (id:1314652)

维威克·卡拉 Viveik Kalra (id:1421619)

阿奇·雷诺 Archie Renaux (id:1426494)

昆泰莎·斯文戴尔 Quintessa Swindell (id:1418396)

胡紫蕊 Madison Hu (id:1352956)

维罗尼卡·法尔孔 Veronica Falcón (id:1191720)

拉菲·怀尔德 Rafi Wilder (id:1445114)

阿奇·马德基 Archie Madekwe (id:1423560)

卢洛·贝尔 Lou Llobell (id:1434343)

沃恩·李 Wern Lee (id:1455051)

特雷弗·古雷基斯 Trevor Gureckis (id:1444975)

◎标 签 科幻 / 美国 / 太空 / 人性 / 2021 / 惊悚 / 有限空间 / 电影

◎简 介

在人类的一项长久的计划中,30个少年被送往一颗新行星居住。但是在他们的船长离奇的死亡以后,年轻的船员们陷入了混乱的局面当中。在屈服于人类原始的兽性之后,这些少年分别集结成了不同的部落。

  1. General

  2. Unique ID : 23259215095280581136072311689890349457 (0x117F8FD798C0D1ADDF4748686B45C191)

  3. Complete name : Voyagers.2021.2160p.HDR.UHD.BluRay.TrueHD.5.1.x265-10bit-10007@BBQDDQ.COM.mkv

  4. Format : Matroska

  5. Format version : Version 4

  6. File size : 10.5 GiB

  7. Duration : 1 h 48 min

  8. Overall bit rate mode : Variable

  9. Overall bit rate : 13.9 Mb/s

  10. Movie name : Voyagers 2021 2160p HDR UHD BluRay TrueHD 5.1 x265-10bit-10007@BBQDDQ.COM

  11. Encoded date : UTC 2021-07-14 00:40:44

  12. Writing application : mkvmerge v38.0.0 ('The Silent Type') 64-bit

  13. Writing library : libebml v1.3.9 + libmatroska v1.5.2


  14. Video

  15. ID : 1

  16. Format : HEVC

  17. Format/Info : High Efficiency Video Coding

  18. Format profile : Main 10@L5.1@High

  19. HDR format : SMPTE ST 2086, HDR10 compatible

  20. Codec ID : V_MPEGH/ISO/HEVC

  21. Duration : 1 h 48 min

  22. Bit rate : 11.4 Mb/s

  23. Width : 3 840 pixels

  24. Height : 1 600 pixels

  25. Display aspect ratio : 2.40:1

  26. Frame rate mode : Constant

  27. Frame rate : 23.976 (24000/1001/53354) FPS

  28. Color space : YUV

  29. Chroma subsampling : 4:2:0

  30. Bit depth : 10 bits

  31. Bits/(Pixel*Frame) : 0.078

  32. Stream size : 8.64 GiB (82%)

  33. Title : @HDSky

  34. Writing library : x265 - H.265/HEVC codec

  35. Default : Yes

  36. Forced : No

  37. Color range : Limited

  38. Color primaries : BT.2020

  39. Transfer characteristics : PQ

  40. Matrix coefficients : BT.2020 non-constant

  41. Mastering display color primaries : BT.2020

  42. Mastering display luminance : min: 0.0020 cd/m2, max: 1000 cd/m2

  43. Maximum Content Light Level : 739 cd/m2

  44. Maximum Frame-Average Light Level : 331 cd/m2


  45. Audio

  46. ID : 2

  47. Format : MLP FBA

  48. Format/Info : Meridian Lossless Packing FBA

  49. Commercial name : Dolby TrueHD

  50. Codec ID : A_TRUEHD

  51. Duration : 1 h 48 min

  52. Bit rate mode : Variable

  53. Bit rate : 2 411 kb/s

  54. Maximum bit rate : 4 497 kb/s

  55. Channel(s) : 6 channels

  56. Channel layout : L R C LFE Ls Rs

  57. Sampling rate : 48.0 kHz

  58. Frame rate : 1 200.000 FPS (40 SPF)

  59. Compression mode : Lossless

  60. Stream size : 1.82 GiB (17%)

  61. Title : English

  62. Language : English

  63. Default : Yes

  64. Forced : No


  65. Text #1

  66. ID : 3

  67. Format : PGS

  68. Muxing mode : zlib

  69. Codec ID : S_HDMV/PGS

  70. Codec ID/Info : Picture based subtitle format used on BDs/HD-DVDs

  71. Duration : 1 h 35 min

  72. Bit rate : 22.9 kb/s

  73. Count of elements : 1858

  74. Stream size : 15.6 MiB (0%)

  75. Title : ENG

  76. Language : English

  77. Default : Yes

  78. Forced : No


  79. Text #2

  80. ID : 4

  81. Format : PGS

  82. Muxing mode : zlib

  83. Codec ID : S_HDMV/PGS

  84. Codec ID/Info : Picture based subtitle format used on BDs/HD-DVDs

  85. Duration : 1 h 36 min

  86. Bit rate : 17.8 kb/s

  87. Count of elements : 2100

  88. Stream size : 12.3 MiB (0%)

  89. Title : CHS

  90. Language : Chinese

  91. Default : No

  92. Forced : No


  93. Text #3

  94. ID : 5

  95. Format : PGS

  96. Muxing mode : zlib

  97. Codec ID : S_HDMV/PGS

  98. Codec ID/Info : Picture based subtitle format used on BDs/HD-DVDs

  99. Duration : 1 h 36 min

  100. Bit rate : 18.4 kb/s

  101. Count of elements : 2100

  102. Stream size : 12.8 MiB (0%)

  103. Title : CHT

  104. Language : Chinese

  105. Default : No

  106. Forced : No


  107. Menu

  108. 00:00:00.000 : en:Chapter 01

  109. 00:06:04.155 : en:Chapter 02

  110. 00:12:16.777 : en:Chapter 03

  111. 00:19:22.077 : en:Chapter 04

  112. 00:28:56.317 : en:Chapter 05

  113. 00:36:56.339 : en:Chapter 06

  114. 00:42:26.085 : en:Chapter 07

  115. 00:47:20.629 : en:Chapter 08

  116. 00:52:45.412 : en:Chapter 09

  117. 00:57:52.218 : en:Chapter 10

  118. 01:03:59.126 : en:Chapter 11

  119. 01:13:48.090 : en:Chapter 12

  120. 01:19:08.410 : en:Chapter 13

  121. 01:26:47.160 : en:Chapter 14

  122. 01:34:17.526 : en:Chapter 15

  123. 01:38:14.555 : en:Chapter 16



文件下载


除非特别注明,本文『太空异旅[中文字幕]Voyagers.2021.2160p.HDR.UHD.BluRay.TrueHD.5.1.x265-10bit-迅雷下载 10.53GB』来源于互联网机器人自动抓取,非本站原创。 浮游电影网不对本文拥有版权,如有侵犯,请联系邮箱:fuyouu#yandex.com[#换成@]投诉。我们会在15个工作日内删除。 但烦请转载时请标明出处:“本文转载于『浮游电影网』,原文地址:https://www.fuyouu.com/13122.html

评论吧骚年!

发表你的见解   

昵称*

E-mail*(建议输入,以便收到博主回复的提示邮件)

验证码*

您可以使用eMule或eMule Mod(Windows)、aMule(Win、Linux、Mac)等软件下载eD2k链接。。
eMule收藏集(.emulecollection)文件是您选中的所有链接的列表文件。eMule可以直接下载它们。
按住SHIFT键选择可以选中多个选择框。
可用文件名和大小选择器来选择文件。
文件名选择器帮您根据文件名称或后缀来选择文件。不分大小写。
符号使用:
和:空格( )、+
不包含:-
或:|
转义:一对英文引号("");
匹配开头:^
匹配结尾:$
例如:
选中所有名称中包含有“eMule”或“0.49c”字眼,但不包含有“exe”字眼的:emule|0.49c -exe
选中所有名称的开头是“eMule”,结尾是“0.49c”的:^emule 0.49c$
选中所有名称中带有“eMule 0.49c”的(必须是“eMule 0.49c”,中间没有别的字符,不能是“eMule fake 0.49c”),需要转义:"emule 0.49c"
大小选择器帮您根据文件大小选择文件。