当前位置: 首页 >> 海外电影 >> 罪人[中文字幕]The.Guilty.2018.1080i.BluRay.x264.DTS-迅雷下载 9.84GB >> 正文

罪人[中文字幕]The.Guilty.2018.1080i.BluRay.x264.DTS-迅雷下载 9.84GB

2021年07月17日 12:30:10     电影发布:来源于网络     电影分类:海外电影     评论(0)    

罪人[中文字幕]The.Guilty.2018.1080i.BluRay.x264.DTS 迅雷下载 9.84GB 犯罪片 惊悚片 剧情片 海外电影 第1张

◎译 名 罪人 / 来电追缉(港) / 厄夜追缉令(台) / The Guilty

◎片 名 Den skyldige

◎年 代 2018

◎产 地 丹麦

◎类 别 剧情 / 惊悚 / 犯罪

◎语 言 丹麦语

◎上映日期 2018-01-21(圣丹斯电影节) / 2018-06-14(丹麦)

◎IMDb链接 https://www.imdb.com/title/tt6742252/

◎豆瓣评分 7.6/10 (24935人评价)

◎豆瓣链接 https://movie.douban.com/subject/27615398/

◎片 长 85分钟

◎导 演 古斯塔夫·莫勒 Gustav M?ller (id:1389185)

◎编 剧 古斯塔夫·莫勒 Gustav M?ller (id:1389185)

埃米尔·尼加德·阿尔伯森 Emil Nygaard Albertsen (id:1404222)

◎演 员 雅各布·克德格恩 Jakob Cedergren (id:1014369)

杰西卡·迪内奇 Jessica Dinnage (id:1392531)

奥玛尔·沙加威 Omar Shargawi (id:1307164)

约翰·奥尔森 Johan Olsen (id:1404223)

雅各布·乌尔里克·罗曼 Jakob Ulrik Lohmann (id:1180000)

西蒙·本尼杰格 Simon Bennebjerg (id:1393449)

劳拉·布罗 Laura Bro (id:1045675)

蒙坦·瑟贝尔 Morten Suurballe (id:1033532)

莫滕·桑博 Morten Thunbo (id:1192866)

安德斯·布林克·马德森 Anders Brink Madsen (id:1125295)

马特·福勒 Matt Fowler (id:1398684)

◎标 签 悬疑 / 丹麦 / 犯罪 / 剧情 / 惊悚 / 人性 / 2018 / 独立电影

◎简 介

前警官Asger Holm接到一通电话,来自一个被绑架的女人,当电话突然挂断后,搜寻那位女性的行动正式展开。这通电话是惟一的线索,警官需要与时间赛跑,拯救她于危难之中,然而他逐渐意识到他所处理的案件远比自己想象的要复杂很多。

◎获奖情况 (共10项)

第31届欧洲电影奖 (2018)

最佳男主角(提名)

└──雅各布·克德格恩 (id:1014369)

最佳编剧(提名)

└──古斯塔夫·莫勒 (id:1389185)

└──埃米尔·尼加德·阿尔伯森 (id:1404222)

费比西-发现奖(提名)

第34届圣丹斯电影节 (2018)

评审团大奖 世界电影单元剧情片(提名)

└──古斯塔夫·莫勒 (id:1389185)

第47届鹿特丹国际电影节 (2018)

观众奖

└──古斯塔夫·莫勒 (id:1389185)

大银幕奖(提名)

└──古斯塔夫·莫勒 (id:1389185)

第66届美国音效剪辑协会奖 (2019)

金卷轴奖 最佳外语片音效剪辑(提名)

第90届美国国家评论协会奖 (2018)

五佳外语片

第23届金卫星奖 (2019)

电影部门 最佳外语片(提名)

第5届豆瓣电影年度榜单 (2018)

年度冷门佳片(提名)

  1. General

  2. Unique ID : 33451971787496561611798731353226867932 (0x192A9D8BEE7001868EEC1A285C59F4DC)

  3. Complete name : The.Guilty.2018.1080i..BluRay.x264.DTS-10009@BBQDDQ.COM.mkv

  4. Format : Matroska

  5. Format version : Version 4

  6. File size : 9.84 GiB

  7. Duration : 1 h 25 min

  8. Overall bit rate : 16.5 Mb/s

  9. Encoded date : UTC 2021-07-15 01:44:31

  10. Writing application : mkvmerge v57.0.0 ('Till The End') 64-bit

  11. Writing library : libebml v1.4.2 + libmatroska v1.6.4


  12. Video

  13. ID : 1

  14. Format : AVC

  15. Format/Info : Advanced Video Codec

  16. Format profile : High@L4.1

  17. Format settings : CABAC / 4 Ref Frames

  18. Format settings, CABAC : Yes

  19. Format settings, Reference frames : 4 frames

  20. Codec ID : V_MPEG4/ISO/AVC

  21. Duration : 1 h 25 min

  22. Bit rate : 15.0 Mb/s

  23. Width : 1 920 pixels

  24. Height : 804 pixels

  25. Display aspect ratio : 2.40:1

  26. Frame rate mode : Constant

  27. Frame rate : 25.000 FPS

  28. Color space : YUV

  29. Chroma subsampling : 4:2:0

  30. Bit depth : 8 bits

  31. Scan type : Progressive

  32. Bits/(Pixel*Frame) : 0.388

  33. Stream size : 8.92 GiB (91%)

  34. Writing library : x264 core 164 r3065+55M 280faca t_mod_New [(8 & 10)-bit@all X86_64]

  35. Encoding settings : cabac=1 / ref=4 / deblock=1:-3:-3 / analyse=0x3:0x133 / me=umh / subme=11 / psy=1 / fade_compensate=0.00 / psy_rd=1.00:0.00 / mixed_ref=1 / me_range=48 / chroma_me=1 / trellis=2 / 8x8dct=1 / cqm=0 / deadzone=21,11 / fast_pskip=0 / chroma_qp_offset=-3 / threads=25 / lookahead_threads=6 / sliced_threads=0 / nr=0 / decimate=0 / interlaced=0 / NTMzNTQ= / bluray_compat=0 / constrained_intra=0 / fgo=0 / bframes=11 / b_pyramid=2 / b_adapt=2 / b_bias=0 / direct=3 / weightb=1 / open_gop=0 / weightp=2 / keyint=240 / keyint_min=1 / NTMzNTQ=uuDQuD2mJt9fsCf / scenecut=40 / intra_refresh=0 / rc_lookahead=72 / rc=crf / mbtree=0 / crf=17.0000 / qcomp=0.65 / qpmin=0:0:0 / qpmax=69:69:69 / qpstep=4 / vbv_maxrate=62500 / vbv_bufsize=78125 / crf_max=0.0 / nal_hrd=none / filler=0 / NTMzNTQ=LmsMAP37EqsCpk / ip_ratio=1.40 / pb_ratio=1.30 / aq=3:0.90 / aq-sensitivity=10.00 / aq-factor=1.00:1.00:1.00 / aq2=0 / aq3=0

  36. Language : English

  37. Default : Yes

  38. Forced : No


  39. Audio

  40. ID : 2

  41. ID in the original source medium : 4352 (0x1100)

  42. Format : DTS

  43. Format/Info : Digital Theater Systems

  44. Codec ID : A_DTS

  45. Duration : 1 h 25 min

  46. Bit rate mode : Constant

  47. Bit rate : 1 509 kb/s

  48. Channel(s) : 6 channels

  49. Channel layout : C L R Ls Rs LFE

  50. Sampling rate : 48.0 kHz

  51. Frame rate : 93.750 FPS (512 SPF)

  52. Bit depth : 16 bits

  53. Compression mode : Lossy

  54. Stream size : 919 MiB (9%)

  55. Language : French

  56. Default : Yes

  57. Forced : No

  58. Original source medium : Blu-ray


  59. Text #1

  60. ID : 3

  61. ID in the original source medium : 4610 (0x1202)

  62. Format : PGS

  63. Muxing mode : zlib

  64. Codec ID : S_HDMV/PGS

  65. Codec ID/Info : Picture based subtitle format used on BDs/HD-DVDs

  66. Duration : 1 h 20 min

  67. Bit rate : 23.5 kb/s

  68. Count of elements : 1106

  69. Stream size : 13.6 MiB (0%)

  70. Title : chs

  71. Language : Chinese

  72. Default : Yes

  73. Forced : No

  74. Original source medium : Blu-ray


  75. Text #2

  76. ID : 4

  77. ID in the original source medium : 4611 (0x1203)

  78. Format : PGS

  79. Muxing mode : zlib

  80. Codec ID : S_HDMV/PGS

  81. Codec ID/Info : Picture based subtitle format used on BDs/HD-DVDs

  82. Duration : 1 h 20 min

  83. Bit rate : 23.8 kb/s

  84. Count of elements : 1106

  85. Stream size : 13.8 MiB (0%)

  86. Title : cht

  87. Language : Chinese

  88. Default : No

  89. Forced : No

  90. Original source medium : Blu-ray


  91. Text #3

  92. ID : 5

  93. ID in the original source medium : 4608 (0x1200)

  94. Format : PGS

  95. Muxing mode : zlib

  96. Codec ID : S_HDMV/PGS

  97. Codec ID/Info : Picture based subtitle format used on BDs/HD-DVDs

  98. Duration : 1 h 24 min

  99. Bit rate : 36.4 kb/s

  100. Count of elements : 2863

  101. Stream size : 22.0 MiB (0%)

  102. Language : French

  103. Default : No

  104. Forced : No

  105. Original source medium : Blu-ray


  106. Menu

  107. 00:00:00.000 : 第 01 章

  108. 00:08:45.680 : 第 02 章

  109. 00:15:07.480 : 第 03 章

  110. 00:25:05.240 : 第 04 章

  111. 00:32:11.520 : 第 05 章

  112. 00:40:12.080 : 第 06 章

  113. 00:45:19.160 : 第 07 章

  114. 00:52:43.200 : 第 08 章

  115. 01:01:19.720 : 第 09 章

  116. 01:07:38.080 : 第 10 章

  117. 01:12:36.320 : 第 11 章

  118. 01:22:06.240 : 第 12 章



文件下载


除非特别注明,本文『罪人[中文字幕]The.Guilty.2018.1080i.BluRay.x264.DTS-迅雷下载 9.84GB』来源于互联网机器人自动抓取,非本站原创。 浮游电影网不对本文拥有版权,如有侵犯,请联系邮箱:fuyouu#yandex.com[#换成@]投诉。我们会在15个工作日内删除。 但烦请转载时请标明出处:“本文转载于『浮游电影网』,原文地址:https://www.fuyouu.com/13108.html

评论吧骚年!

发表你的见解   

昵称*

E-mail*(建议输入,以便收到博主回复的提示邮件)

验证码*

您可以使用eMule或eMule Mod(Windows)、aMule(Win、Linux、Mac)等软件下载eD2k链接。。
eMule收藏集(.emulecollection)文件是您选中的所有链接的列表文件。eMule可以直接下载它们。
按住SHIFT键选择可以选中多个选择框。
可用文件名和大小选择器来选择文件。
文件名选择器帮您根据文件名称或后缀来选择文件。不分大小写。
符号使用:
和:空格( )、+
不包含:-
或:|
转义:一对英文引号("");
匹配开头:^
匹配结尾:$
例如:
选中所有名称中包含有“eMule”或“0.49c”字眼,但不包含有“exe”字眼的:emule|0.49c -exe
选中所有名称的开头是“eMule”,结尾是“0.49c”的:^emule 0.49c$
选中所有名称中带有“eMule 0.49c”的(必须是“eMule 0.49c”,中间没有别的字符,不能是“eMule fake 0.49c”),需要转义:"emule 0.49c"
大小选择器帮您根据文件大小选择文件。