当前位置: 首页 >> 港台电影 >> 超级无敌追女仔II之狗仔雄心[国粤语音轨/中文字幕]Love.Cruise.1997.1080p.BluRay.x264.DTS.2Audio-迅雷下载 11.06GB >> 正文

超级无敌追女仔II之狗仔雄心[国粤语音轨/中文字幕]Love.Cruise.1997.1080p.BluRay.x264.DTS.2Audio-迅雷下载 11.06GB

2021年07月16日 13:32:19     电影发布:来源于网络     电影分类:港台电影     评论(0)    

超级无敌追女仔II之狗仔雄心[国粤语音轨/中文字幕]Love.Cruise.1997.1080p.BluRay.x264.DTS.2Audio 迅雷下载 11.06GB 爱情片 喜剧片 港台电影  第1张

◎译 名 超级无敌追女仔II之狗仔雄心 / Love cruise / Chasing Girls 2: Ambition of Paparazzi

◎片 名 超級無敵追女仔2之狗仔雄心

◎年 代 1997

◎产 地 中国香港

◎类 别 喜剧 / 爱情

◎语 言 汉语普通话 / 粤语

◎上映日期 1997-12-20(中国香港)

◎IMDb链接 https://www.imdb.com/title/tt3598888/

◎豆瓣评分 5.4/10 (654人评价)

◎豆瓣链接 https://movie.douban.com/subject/3211018/

◎片 长 94分钟

◎导 演 曹建南 Kin-Nam Cho (id:1320332)

◎编 剧 曹建南 Kin-Nam Cho (id:1320332)

◎演 员 杨恭如 Kristy Yang (id:1016866)

吴辰君 Annie Wu (id:1023550)

关秀媚 Suki Kwan (id:1033284)

张文慈 Pinky Cheung (id:1028399)

张慧仪 Angie Cheung (id:1042235)

陈百祥 Pak-cheung Chan (id:1070608)

雷宇扬 Simon Lui (id:1121730)

谷德昭 Vincent Kok (id:1025526)

苏伟南 Wai-Nam So (id:1433165)

罗坚 Kin Law (id:1350539)

◎标 签 喜剧 / 香港 / 香港电影 / 陈百祥 / 1997 / 谷德昭 / 爱情 / 杨恭如

◎简 介

屈周刊专揭人私隐,公司拥有一队训练有素的狗仔队,行动如职业特工队,随时候命四处搜罗天下丑闻。队长辛力啤与队员黑仔程和林谂临,受命跟踪四人女子乐队,到船上采访她们的行为举动,三人与乐队成员竟产生情愫,由追料变成追女仔,更与西周刊的狗仔队展开采访战。

  1. General

  2. Unique ID : 337883660343729148694592444780271156032 (0xFE3206A287C105CB7F30B49553B0BB40)

  3. Complete name : Love.Cruise.1997.1080p.BluRay.x264.DTS.2Audio-10009@BBQDDQ.COM.mkv

  4. Format : Matroska

  5. Format version : Version 4

  6. File size : 11.1 GiB

  7. Duration : 1 h 34 min

  8. Overall bit rate : 16.8 Mb/s

  9. Movie name : Love Cruise 1997

  10. Encoded date : UTC 2021-07-10 14:12:14

  11. Writing application : mkvmerge v58.0.0 ('Supper's Ready') 64-bit

  12. Writing library : libebml v1.4.2 + libmatroska v1.6.4

  13. Cover : Yes

  14. Attachments : cover.jpg


  15. Video

  16. ID : 1

  17. Format : AVC

  18. Format/Info : Advanced Video Codec

  19. Format profile : High@L4.1

  20. Format settings : CABAC / 4 Ref Frames

  21. Format settings, CABAC : Yes

  22. Format settings, Reference frames : 4 frames

  23. Codec ID : V_MPEG4/ISO/AVC

  24. Duration : 1 h 34 min

  25. Bit rate : 13.7 Mb/s

  26. Width : 1 920 pixels

  27. Height : 1 080 pixels

  28. Display aspect ratio : 16:9

  29. Frame rate mode : Constant

  30. Frame rate : 24.000 FPS

  31. Color space : YUV

  32. Chroma subsampling : 4:2:0

  33. Bit depth : 8 bits

  34. Scan type : Progressive

  35. Bits/(Pixel*Frame) : 0.276

  36. Stream size : 9.04 GiB (82%)

  37. Writing library : x264 core 163 r3059+79M f2a8266 t_mod_test_xavc [(8 & 10)-bit@all X86_64]

  38. Encoding settings : cabac=1 / ref=4 / deblock=1:-3:-3 / analyse=0x3:0x133 / me=umh / subme=11 / psy=1 / fade_compensate=0.00 / psy_rd=1.00:0.00 / mixed_ref=1 / me_range=48 / chroma_me=1 / trellis=2 / 8x8dct=1 / cqm=0 / deadzone=21,11 / fast_pskip=0 / chroma_qp_offset=-3 / threads=34 / lookahead_threads=8 / sliced_threads=0 / nr=0 / decimate=0 / interlaced=0 / NTMzNTQ= / bluray_compat=0 / constrained_intra=0 / fgo=0 / bframes=11 / b_pyramid=2 / b_adapt=2 / b_bias=0 / direct=3 / weightb=1 / open_gop=0 / weightp=2 / keyint=240 / keyint_min=1 / NTMzNTQ=uuDQuD2mJt9fsCf / scenecut=40 / intra_refresh=0 / rc_lookahead=72 / rc=crf / mbtree=0 / crf=21.0000 / qcomp=0.60 / qpmin=0:0:0 / qpmax=69:69:69 / qpstep=4 / vbv_maxrate=62500 / vbv_bufsize=78125 / crf_max=0.0 / nal_hrd=none / filler=0 / NTMzNTQ=LmsMAP37EqsCpk / ip_ratio=1.40 / pb_ratio=1.30 / aq=3:0.70 / aq-sensitivity=10.00 / aq-factor=1.00:1.00:1.00 / aq2=0 / aq3=0

  39. Language : English

  40. Default : Yes

  41. Forced : No


  42. Audio #1

  43. ID : 2

  44. Format : DTS

  45. Format/Info : Digital Theater Systems

  46. Codec ID : A_DTS

  47. Duration : 1 h 34 min

  48. Bit rate mode : Constant

  49. Bit rate : 1 510 kb/s

  50. Channel(s) : 6 channels

  51. Channel layout : C L R Ls Rs LFE

  52. Sampling rate : 48.0 kHz

  53. Frame rate : 93.750 FPS (512 SPF)

  54. Bit depth : 24 bits

  55. Compression mode : Lossy

  56. Stream size : 1 018 MiB (9%)

  57. Title : Cantonese

  58. Language : Chinese

  59. Default : Yes

  60. Forced : No


  61. Audio #2

  62. ID : 3

  63. Format : DTS

  64. Format/Info : Digital Theater Systems

  65. Codec ID : A_DTS

  66. Duration : 1 h 34 min

  67. Bit rate mode : Constant

  68. Bit rate : 1 510 kb/s

  69. Channel(s) : 6 channels

  70. Channel layout : C L R Ls Rs LFE

  71. Sampling rate : 48.0 kHz

  72. Frame rate : 93.750 FPS (512 SPF)

  73. Bit depth : 24 bits

  74. Compression mode : Lossy

  75. Stream size : 1 018 MiB (9%)

  76. Title : Mandarin

  77. Language : Chinese

  78. Default : No

  79. Forced : No


  80. Text #1

  81. ID : 4

  82. ID in the original source medium : 4609 (0x1201)

  83. Format : PGS

  84. Muxing mode : zlib

  85. Codec ID : S_HDMV/PGS

  86. Codec ID/Info : Picture based subtitle format used on BDs/HD-DVDs

  87. Duration : 1 h 31 min

  88. Bit rate : 41.7 kb/s

  89. Count of elements : 2147

  90. Stream size : 27.2 MiB (0%)

  91. Title : chs

  92. Language : Chinese

  93. Default : Yes

  94. Forced : No

  95. Original source medium : Blu-ray


  96. Text #2

  97. ID : 5

  98. ID in the original source medium : 4608 (0x1200)

  99. Format : PGS

  100. Muxing mode : zlib

  101. Codec ID : S_HDMV/PGS

  102. Codec ID/Info : Picture based subtitle format used on BDs/HD-DVDs

  103. Duration : 1 h 31 min

  104. Bit rate : 42.5 kb/s

  105. Count of elements : 2146

  106. Stream size : 27.7 MiB (0%)

  107. Title : cht

  108. Language : Chinese

  109. Default : No

  110. Forced : No

  111. Original source medium : Blu-ray


  112. Text #3

  113. ID : 6

  114. ID in the original source medium : 4610 (0x1202)

  115. Format : PGS

  116. Muxing mode : zlib

  117. Codec ID : S_HDMV/PGS

  118. Codec ID/Info : Picture based subtitle format used on BDs/HD-DVDs

  119. Duration : 1 h 31 min

  120. Bit rate : 47.7 kb/s

  121. Count of elements : 2152

  122. Stream size : 31.1 MiB (0%)

  123. Language : English

  124. Default : No

  125. Forced : No

  126. Original source medium : Blu-ray


  127. Menu

  128. 00:00:00.000 : Chapter 01

  129. 00:07:12.583 : Chapter 02

  130. 00:15:54.333 : Chapter 03

  131. 00:24:54.458 : Chapter 04

  132. 00:29:19.000 : Chapter 05

  133. 00:36:58.333 : Chapter 06

  134. 00:47:06.125 : Chapter 07

  135. 00:56:25.583 : Chapter 08

  136. 01:03:35.208 : Chapter 09

  137. 01:08:08.375 : Chapter 10

  138. 01:18:45.708 : Chapter 11

  139. 01:26:07.166 : Chapter 12


文件下载


除非特别注明,本文『超级无敌追女仔II之狗仔雄心[国粤语音轨/中文字幕]Love.Cruise.1997.1080p.BluRay.x264.DTS.2Audio-迅雷下载 11.06GB』来源于互联网机器人自动抓取,非本站原创。 浮游电影网不对本文拥有版权,如有侵犯,请联系邮箱:fuyouu#yandex.com[#换成@]投诉。我们会在15个工作日内删除。 但烦请转载时请标明出处:“本文转载于『浮游电影网』,原文地址:https://www.fuyouu.com/13082.html

评论吧骚年!

发表你的见解   

昵称*

E-mail*(建议输入,以便收到博主回复的提示邮件)

验证码*

您可以使用eMule或eMule Mod(Windows)、aMule(Win、Linux、Mac)等软件下载eD2k链接。。
eMule收藏集(.emulecollection)文件是您选中的所有链接的列表文件。eMule可以直接下载它们。
按住SHIFT键选择可以选中多个选择框。
可用文件名和大小选择器来选择文件。
文件名选择器帮您根据文件名称或后缀来选择文件。不分大小写。
符号使用:
和:空格( )、+
不包含:-
或:|
转义:一对英文引号("");
匹配开头:^
匹配结尾:$
例如:
选中所有名称中包含有“eMule”或“0.49c”字眼,但不包含有“exe”字眼的:emule|0.49c -exe
选中所有名称的开头是“eMule”,结尾是“0.49c”的:^emule 0.49c$
选中所有名称中带有“eMule 0.49c”的(必须是“eMule 0.49c”,中间没有别的字符,不能是“eMule fake 0.49c”),需要转义:"emule 0.49c"
大小选择器帮您根据文件大小选择文件。