当前位置: 首页 >> 海外电影 >> 科拉深孔[中文字幕]The.Superdeep.2020.1080p.BluRay.x264.DTS-迅雷下载 12.53GB >> 正文

科拉深孔[中文字幕]The.Superdeep.2020.1080p.BluRay.x264.DTS-迅雷下载 12.53GB

2021年07月13日 23:04:56     电影发布:来源于网络     电影分类:海外电影     评论(0)    

科拉深孔[中文字幕]The.Superdeep.2020.1080p.BluRay.x264.DTS 迅雷下载 12.53GB 科幻片 恐怖片 海外电影 第1张

◎译 名 科拉深孔 / 深孔 / The Superdeep / Kola Superdeep

◎片 名 Кольская сверхглубокая

◎年 代 2020

◎产 地 俄罗斯

◎类 别 科幻 / 恐怖

◎语 言 俄语

◎上映日期 2020-11-04(俄罗斯)

◎IMDb链接 https://www.imdb.com/title/tt11815960/

◎豆瓣评分 5.5/10 (3054人评价)

◎豆瓣链接 https://movie.douban.com/subject/34971880/

◎片 长 113分钟

◎导 演 阿森尼·苏亨 Arseny Syuhin (id:1438748)

◎编 剧 阿森尼·苏亨 Arseny Syuhin (id:1438748)

谢尔盖·托奇林 Сергей Торчилин (id:1438874)

维克多·邦达鲁克 Viktor Bondaryuk (id:1438889)

◎演 员 米莱纳拉·德罗维奇 Milena Radulovic (id:1406157)

谢尔盖·伊万俞科 Sergey Ivanyuk (id:1438751)

尼克雷·柯维巴斯 Nikolay Kovbas (id:1438753)

瓦季姆·德姆乔格 Vadim Demchog (id:1240172)

基里尔·柯维巴斯 Kirill Kovbas (id:1438745)

尼基塔·德俞班诺夫 Nikita Dyuvbanov (id:1438750)

阿宾娜·柴基纳 Albina Chaykina (id:1450161)

伊利亚·伊林尼赫 Ilya Ilinykh (id:1438752)

弗拉迪米尔·柯里达 Vladimir Kolida (id:1450194)

Viktor Nizovoy Viktor Nizovoy (id:1450176)

Maksim Radugin Maksim Radugin (id:1450207)

达尔雅·沙加尔 Darya Shagal (id:1450178)

Evgeniy Tscherkashin Evgeniy Tscherkashin (id:1450163)

Artyom Tsukanov Artyom Tsukanov (id:1450167)

◎标 签 俄罗斯 / 科幻 / 恐怖 / 惊悚 / 2020 / 基于现实改编 / 深海恐惧症 / 电影

◎简 介

故事聚焦在一支研究团队,他们被派到科拉深孔(KolaSuperdeepBorehole)去调查源自于深处的奇怪声音,他们却发现超乎他们所有想像的东西。更糟的是,他们可能无意间将躲藏在深处的东西给释放了出来。

  1. General

  2. Unique ID : 15425085795338413365716671445033596612 (0xB9AC3724C4708EBBC7E3A73F198B6C4)

  3. Complete name : The.Superdeep.2020.1080p.BluRay.x264.DTS-10009@BBQDDQ.COM.mkv

  4. Format : Matroska

  5. Format version : Version 4

  6. File size : 12.5 GiB

  7. Duration : 1 h 55 min

  8. Overall bit rate : 15.6 Mb/s

  9. Movie name : The Superdeep 2020

  10. Encoded date : UTC 2021-07-11 00:58:09

  11. Writing application : mkvmerge v59.0.0 ('Shining Star') 64-bit

  12. Writing library : libebml v1.4.2 + libmatroska v1.6.4


  13. Video

  14. ID : 1

  15. Format : AVC

  16. Format/Info : Advanced Video Codec

  17. Format profile : High@L4.1

  18. Format settings : CABAC / 4 Ref Frames

  19. Format settings, CABAC : Yes

  20. Format settings, Reference frames : 4 frames

  21. Codec ID : V_MPEG4/ISO/AVC

  22. Duration : 1 h 55 min

  23. Bit rate : 14.0 Mb/s

  24. Width : 1 920 pixels

  25. Height : 700 pixels

  26. Display aspect ratio : 2.743

  27. Frame rate mode : Constant

  28. Frame rate : 24.000 FPS

  29. Color space : YUV

  30. Chroma subsampling : 4:2:0

  31. Bit depth : 8 bits

  32. Scan type : Progressive

  33. Bits/(Pixel*Frame) : 0.435

  34. Stream size : 11.3 GiB (90%)

  35. Writing library : x264 core 163 r3059+79M f2a8266 t_mod_test_xavc [(8 & 10)-bit@all X86_64]

  36. Encoding settings : cabac=1 / ref=4 / deblock=1:-3:-3 / analyse=0x3:0x133 / me=umh / subme=11 / psy=1 / fade_compensate=0.00 / psy_rd=1.00:0.00 / mixed_ref=1 / me_range=48 / chroma_me=1 / trellis=2 / 8x8dct=1 / cqm=0 / deadzone=21,11 / fast_pskip=0 / chroma_qp_offset=-3 / threads=22 / lookahead_threads=5 / sliced_threads=0 / nr=0 / decimate=0 / interlaced=0 / NTMzNTQ= / bluray_compat=0 / constrained_intra=0 / fgo=0 / bframes=11 / b_pyramid=2 / b_adapt=2 / b_bias=0 / direct=3 / weightb=1 / open_gop=0 / weightp=2 / keyint=240 / keyint_min=1 / NTMzNTQ=uuDQuD2mJt9fsCf / scenecut=40 / intra_refresh=0 / rc_lookahead=72 / rc=crf / mbtree=0 / crf=17.0000 / qcomp=0.65 / qpmin=0:0:0 / qpmax=69:69:69 / qpstep=4 / vbv_maxrate=62500 / vbv_bufsize=78125 / crf_max=0.0 / nal_hrd=none / filler=0 / NTMzNTQ=LmsMAP37EqsCpk / ip_ratio=1.40 / pb_ratio=1.30 / aq=3:0.80 / aq-sensitivity=10.00 / aq-factor=1.00:1.00:1.00 / aq2=0 / aq3=0

  37. Default : Yes

  38. Forced : No


  39. Audio

  40. ID : 2

  41. ID in the original source medium : 4353 (0x1101)

  42. Format : DTS

  43. Format/Info : Digital Theater Systems

  44. Codec ID : A_DTS

  45. Duration : 1 h 55 min

  46. Bit rate mode : Constant

  47. Bit rate : 1 509 kb/s

  48. Channel(s) : 6 channels

  49. Channel layout : C L R Ls Rs LFE

  50. Sampling rate : 48.0 kHz

  51. Frame rate : 93.750 FPS (512 SPF)

  52. Bit depth : 24 bits

  53. Compression mode : Lossy

  54. Stream size : 1.21 GiB (10%)

  55. Language : English

  56. Default : Yes

  57. Forced : No

  58. Original source medium : Blu-ray


  59. Text #1

  60. ID : 3

  61. ID in the original source medium : 4610 (0x1202)

  62. Format : PGS

  63. Muxing mode : zlib

  64. Codec ID : S_HDMV/PGS

  65. Codec ID/Info : Picture based subtitle format used on BDs/HD-DVDs

  66. Duration : 1 h 50 min

  67. Bit rate : 12.1 kb/s

  68. Count of elements : 1725

  69. Stream size : 9.53 MiB (0%)

  70. Title : chs

  71. Language : Chinese

  72. Default : Yes

  73. Forced : No

  74. Original source medium : Blu-ray


  75. Text #2

  76. ID : 4

  77. ID in the original source medium : 4611 (0x1203)

  78. Format : PGS

  79. Muxing mode : zlib

  80. Codec ID : S_HDMV/PGS

  81. Codec ID/Info : Picture based subtitle format used on BDs/HD-DVDs

  82. Duration : 1 h 50 min

  83. Bit rate : 12.2 kb/s

  84. Count of elements : 1725

  85. Stream size : 9.62 MiB (0%)

  86. Title : cht

  87. Language : Chinese

  88. Default : No

  89. Forced : No

  90. Original source medium : Blu-ray


  91. Menu

  92. 00:00:00.000 : Chapter 01

  93. 00:12:00.666 : Chapter 02

  94. 00:24:21.000 : Chapter 03

  95. 00:35:12.333 : Chapter 04

  96. 00:46:38.583 : Chapter 05

  97. 00:54:47.000 : Chapter 06

  98. 01:03:14.125 : Chapter 07

  99. 01:08:17.083 : Chapter 08

  100. 01:14:43.291 : Chapter 09

  101. 01:25:33.416 : Chapter 10

  102. 01:36:24.500 : Chapter 11

  103. 01:48:00.541 : Chapter 12




文件下载


除非特别注明,本文『科拉深孔[中文字幕]The.Superdeep.2020.1080p.BluRay.x264.DTS-迅雷下载 12.53GB』来源于互联网机器人自动抓取,非本站原创。 浮游电影网不对本文拥有版权,如有侵犯,请联系邮箱:fuyouu#yandex.com[#换成@]投诉。我们会在15个工作日内删除。 但烦请转载时请标明出处:“本文转载于『浮游电影网』,原文地址:https://www.fuyouu.com/13047.html

评论吧骚年!

发表你的见解   

昵称*

E-mail*(建议输入,以便收到博主回复的提示邮件)

验证码*

您可以使用eMule或eMule Mod(Windows)、aMule(Win、Linux、Mac)等软件下载eD2k链接。。
eMule收藏集(.emulecollection)文件是您选中的所有链接的列表文件。eMule可以直接下载它们。
按住SHIFT键选择可以选中多个选择框。
可用文件名和大小选择器来选择文件。
文件名选择器帮您根据文件名称或后缀来选择文件。不分大小写。
符号使用:
和:空格( )、+
不包含:-
或:|
转义:一对英文引号("");
匹配开头:^
匹配结尾:$
例如:
选中所有名称中包含有“eMule”或“0.49c”字眼,但不包含有“exe”字眼的:emule|0.49c -exe
选中所有名称的开头是“eMule”,结尾是“0.49c”的:^emule 0.49c$
选中所有名称中带有“eMule 0.49c”的(必须是“eMule 0.49c”,中间没有别的字符,不能是“eMule fake 0.49c”),需要转义:"emule 0.49c"
大小选择器帮您根据文件大小选择文件。