当前位置: 首页 >> 欧美电影 >> 纽约唯一活着的男孩[双语字幕]The.Only.Living.Boy.in.New.York.2017.1080p.BluRay.x264.DTS-迅雷下载 6.46GB >> 正文

纽约唯一活着的男孩[双语字幕]The.Only.Living.Boy.in.New.York.2017.1080p.BluRay.x264.DTS-迅雷下载 6.46GB

2021年07月13日 23:00:05     电影发布:来源于网络     电影分类:欧美电影     评论(0)    

纽约唯一活着的男孩[双语字幕]The.Only.Living.Boy.in.New.York.2017.1080p.BluRay.x264.DTS 迅雷下载 6.46GB 剧情片 欧美电影 第1张

◎译 名 纽约唯一活着的男孩 / 心跳纽约(港) / 纽约寂寞男孩(台)

◎片 名 The Only Living Boy in New York

◎年 代 2017

◎产 地 美国

◎类 别 剧情

◎语 言 英语

◎上映日期 2017-08-11(美国)

◎IMDb链接 https://www.imdb.com/title/tt0460890/

◎豆瓣评分 6.4/10 (2647人评价)

◎豆瓣链接 https://movie.douban.com/subject/1927366/

◎片 长 89分钟

◎导 演 马克·韦布 Marc Webb (id:1049688)

◎编 剧 阿兰·里布 Allan Loeb (id:1320149)

◎演 员 卡勒姆·特纳 Callum Turner (id:1328007)

杰夫·布里吉斯 Jeff Bridges (id:1036313)

凯特·贝金赛尔 Kate Beckinsale (id:1003487)

皮尔斯·布鲁斯南 Pierce Brosnan (id:1031219)

辛西娅·尼克松 Cynthia Nixon (id:1002678)

科雷西·克莱门斯 Kiersey Clemons (id:1337761)

泰特·多诺万 Tate Donovan (id:1027848)

华莱士·肖恩 Wallace Shawn (id:1040504)

安赫·道格 Anh Duong (id:1088404)

黛比·玛扎 Debi Mazar (id:1025222)

本·霍兰兹沃思 Ben Hollandsworth (id:1383906)

约翰·博尔格 John Bolger (id:1032573)

比尔·坎普 Bill Camp (id:1349856)

理查德·贝金斯 Richard Bekins (id:1061605)

赖恩·斯皮克曼 Ryan Speakman (id:1383907)

奥利弗·桑顿 Oliver Thornton (id:1383908)

亚历山大·索科维科夫 Alexander Sokovikov (id:1383909)

艾德·朱厄特 Ed Jewett (id:1363398)

艾米·霍恩 Amy Hohn (id:1383910)

詹姆斯·塞托 James Saito (id:1142361)

玛德赫·杰佛里 Madhur Jaffrey (id:1023241)

彼得·弗朗西斯·詹姆斯 Peter Francis James (id:1110262)

安迪·麦肯济 Andy Mackenzie (id:1340018)

罗伯·西蒙森 Rob Simonsen (id:1033218)

丹尼尔·艾普尔 Daniel April (id:1271453)

◎标 签 美国 / 剧情 / 纽约 / 2017 / 爱情 / 文艺 / 青春 / 家庭

◎简 介

故事讲述充满文青气质的汤马大学毕业,从父亲的豪宅搬到小区生活,漂流在纽约大都会中,一日,汤马意外发现父亲有外遇,试图出手阻止但却情不自禁投入外遇的怀抱。汤马迷失在了偷情的快感与罪疚之中...

  1. General

  2. Unique ID : 192977723279160877101231974157008774420 (0x912E28579368F6785D2407A336282514)

  3. Complete name : The.Only.Living.Boy.in.New.York.2017.1080p.BluRay.x264.DTS-10009@BBQDDQ.COM.mkv

  4. Format : Matroska

  5. Format version : Version 4

  6. File size : 6.46 GiB

  7. Duration : 1 h 28 min

  8. Overall bit rate : 10.5 Mb/s

  9. Movie name : The Only Living Boy In New York - Blu-ray?

  10. Encoded date : UTC 2021-07-11 13:30:15

  11. Writing application : mkvmerge v59.0.0 ('Shining Star') 64-bit

  12. Writing library : libebml v1.4.2 + libmatroska v1.6.4

  13. Cover : Yes

  14. Attachments : cover.jpg


  15. Video

  16. ID : 1

  17. Format : AVC

  18. Format/Info : Advanced Video Codec

  19. Format profile : High@L4.1

  20. Format settings : CABAC / 4 Ref Frames

  21. Format settings, CABAC : Yes

  22. Format settings, Reference frames : 4 frames

  23. Codec ID : V_MPEG4/ISO/AVC

  24. Duration : 1 h 28 min

  25. Bit rate : 8 854 kb/s

  26. Width : 1 920 pixels

  27. Height : 1 036 pixels

  28. Display aspect ratio : 1.85:1

  29. Frame rate mode : Constant

  30. Frame rate : 23.976 (24000/1001/53354) FPS

  31. Color space : YUV

  32. Chroma subsampling : 4:2:0

  33. Bit depth : 8 bits

  34. Scan type : Progressive

  35. Bits/(Pixel*Frame) : 0.186

  36. Stream size : 5.47 GiB (85%)

  37. Writing library : x264 core 164 r3065+55M 280faca t_mod_New [(8 & 10)-bit@all X86_64]

  38. Encoding settings : cabac=1 / ref=4 / deblock=1:-3:-3 / analyse=0x3:0x133 / me=umh / subme=11 / psy=1 / fade_compensate=0.00 / psy_rd=1.00:0.00 / mixed_ref=1 / me_range=48 / chroma_me=1 / trellis=2 / 8x8dct=1 / cqm=0 / deadzone=21,11 / fast_pskip=0 / chroma_qp_offset=-3 / threads=24 / lookahead_threads=6 / sliced_threads=0 / nr=0 / decimate=0 / interlaced=0 / NTMzNTQ= / bluray_compat=0 / constrained_intra=0 / fgo=0 / bframes=11 / b_pyramid=2 / b_adapt=2 / b_bias=0 / direct=3 / weightb=1 / open_gop=0 / weightp=2 / keyint=240 / keyint_min=1 / NTMzNTQ=uuDQuD2mJt9fsCf / scenecut=40 / intra_refresh=0 / rc_lookahead=72 / rc=crf / mbtree=0 / crf=18.0000 / qcomp=0.65 / qpmin=0:0:0 / qpmax=69:69:69 / qpstep=4 / vbv_maxrate=62500 / vbv_bufsize=78125 / crf_max=0.0 / nal_hrd=none / filler=0 / NTMzNTQ=LmsMAP37EqsCpk / ip_ratio=1.40 / pb_ratio=1.30 / aq=3:0.80 / aq-sensitivity=10.00 / aq-factor=1.00:1.00:1.00 / aq2=0 / aq3=0

  39. Default : Yes

  40. Forced : No


  41. Audio

  42. ID : 2

  43. ID in the original source medium : 4352 (0x1100)

  44. Format : DTS

  45. Format/Info : Digital Theater Systems

  46. Codec ID : A_DTS

  47. Duration : 1 h 28 min

  48. Bit rate mode : Constant

  49. Bit rate : 1 509 kb/s

  50. Channel(s) : 6 channels

  51. Channel layout : C L R Ls Rs LFE

  52. Sampling rate : 48.0 kHz

  53. Frame rate : 93.750 FPS (512 SPF)

  54. Bit depth : 24 bits

  55. Compression mode : Lossy

  56. Stream size : 954 MiB (14%)

  57. Language : English

  58. Default : Yes

  59. Forced : No

  60. Original source medium : Blu-ray


  61. Text #1

  62. ID : 3

  63. ID in the original source medium : 4611 (0x1203)

  64. Format : PGS

  65. Muxing mode : zlib

  66. Codec ID : S_HDMV/PGS

  67. Codec ID/Info : Picture based subtitle format used on BDs/HD-DVDs

  68. Duration : 1 h 20 min

  69. Bit rate : 27.5 kb/s

  70. Count of elements : 1542

  71. Stream size : 15.9 MiB (0%)

  72. Title : chs&eng

  73. Language : Chinese

  74. Default : Yes

  75. Forced : No

  76. Original source medium : Blu-ray


  77. Text #2

  78. ID : 4

  79. ID in the original source medium : 4612 (0x1204)

  80. Format : PGS

  81. Muxing mode : zlib

  82. Codec ID : S_HDMV/PGS

  83. Codec ID/Info : Picture based subtitle format used on BDs/HD-DVDs

  84. Duration : 1 h 20 min

  85. Bit rate : 51.0 kb/s

  86. Count of elements : 1542

  87. Stream size : 29.4 MiB (0%)

  88. Title : cht&eng

  89. Language : Chinese

  90. Default : No

  91. Forced : No

  92. Original source medium : Blu-ray


  93. Text #3

  94. ID : 5

  95. ID in the original source medium : 4613 (0x1205)

  96. Format : PGS

  97. Muxing mode : zlib

  98. Codec ID : S_HDMV/PGS

  99. Codec ID/Info : Picture based subtitle format used on BDs/HD-DVDs

  100. Duration : 1 h 20 min

  101. Bit rate : 27.9 kb/s

  102. Count of elements : 1542

  103. Stream size : 16.1 MiB (0%)

  104. Title : chs

  105. Language : Chinese

  106. Default : No

  107. Forced : No

  108. Original source medium : Blu-ray


  109. Text #4

  110. ID : 6

  111. ID in the original source medium : 4614 (0x1206)

  112. Format : PGS

  113. Muxing mode : zlib

  114. Codec ID : S_HDMV/PGS

  115. Codec ID/Info : Picture based subtitle format used on BDs/HD-DVDs

  116. Duration : 1 h 20 min

  117. Bit rate : 51.4 kb/s

  118. Count of elements : 1542

  119. Stream size : 29.7 MiB (0%)

  120. Title : cht

  121. Language : Chinese

  122. Default : No

  123. Forced : No

  124. Original source medium : Blu-ray


  125. Text #5

  126. ID : 7

  127. ID in the original source medium : 4608 (0x1200)

  128. Format : PGS

  129. Muxing mode : zlib

  130. Codec ID : S_HDMV/PGS

  131. Codec ID/Info : Picture based subtitle format used on BDs/HD-DVDs

  132. Duration : 1 h 20 min

  133. Bit rate : 65.5 kb/s

  134. Count of elements : 2192

  135. Stream size : 37.7 MiB (1%)

  136. Title : eng

  137. Language : English

  138. Default : No

  139. Forced : No

  140. Original source medium : Blu-ray


  141. Menu

  142. 00:00:00.000 : Chapter 01

  143. 00:10:00.600 : Chapter 02

  144. 00:20:01.200 : Chapter 03

  145. 00:30:01.800 : Chapter 04

  146. 00:40:02.400 : Chapter 05

  147. 00:50:03.000 : Chapter 06

  148. 01:00:03.600 : Chapter 07

  149. 01:10:04.200 : Chapter 08

  150. 01:20:04.800 : Chapter 09




文件下载


除非特别注明,本文『纽约唯一活着的男孩[双语字幕]The.Only.Living.Boy.in.New.York.2017.1080p.BluRay.x264.DTS-迅雷下载 6.46GB』来源于互联网机器人自动抓取,非本站原创。 浮游电影网不对本文拥有版权,如有侵犯,请联系邮箱:fuyouu#yandex.com[#换成@]投诉。我们会在15个工作日内删除。 但烦请转载时请标明出处:“本文转载于『浮游电影网』,原文地址:https://www.fuyouu.com/13043.html

评论吧骚年!

发表你的见解   

昵称*

E-mail*(建议输入,以便收到博主回复的提示邮件)

验证码*

您可以使用eMule或eMule Mod(Windows)、aMule(Win、Linux、Mac)等软件下载eD2k链接。。
eMule收藏集(.emulecollection)文件是您选中的所有链接的列表文件。eMule可以直接下载它们。
按住SHIFT键选择可以选中多个选择框。
可用文件名和大小选择器来选择文件。
文件名选择器帮您根据文件名称或后缀来选择文件。不分大小写。
符号使用:
和:空格( )、+
不包含:-
或:|
转义:一对英文引号("");
匹配开头:^
匹配结尾:$
例如:
选中所有名称中包含有“eMule”或“0.49c”字眼,但不包含有“exe”字眼的:emule|0.49c -exe
选中所有名称的开头是“eMule”,结尾是“0.49c”的:^emule 0.49c$
选中所有名称中带有“eMule 0.49c”的(必须是“eMule 0.49c”,中间没有别的字符,不能是“eMule fake 0.49c”),需要转义:"emule 0.49c"
大小选择器帮您根据文件大小选择文件。