当前位置: 首页 >> 港台电影 >> 鬼打鬼[国粤语音轨/简繁字幕]Encounter.of.the.Spooky.Kind.1980.2kRemastered.BluRay.1080p.迅雷下载 >> 正文

鬼打鬼[国粤语音轨/简繁字幕]Encounter.of.the.Spooky.Kind.1980.2kRemastered.BluRay.1080p.迅雷下载

2021年07月13日 22:53:05     电影发布:来源于网络     电影分类:港台电影     评论(0)    

鬼打鬼[国粤语音轨/简繁字幕]Encounter.of.the.Spooky.Kind.1980.2kRemastered.BluRay.1080p.迅雷下载 恐怖片 奇幻片 动作片 喜剧片 港台电影  第1张

◎译 名 鬼打鬼 / Encounter of the Spooky Kind

◎年 代 1980

◎产 地 中国香港

◎类 别 喜剧 / 动作 / 恐怖 / 奇幻

◎语 言 粤语

◎上映日期 1980-12-24

◎IMDb链接 https://www.imdb.com/title/tt0080827/

◎豆瓣评分 7.5/10 (20578人评价)

◎豆瓣链接 https://movie.douban.com/subject/1422908/

◎片 长 102 分钟

◎导 演 洪金宝 Sammo Hung Kam-Bo (id:1055887)

◎编 剧 洪金宝 Sammo Hung Kam-Bo (id:1055887)

黄鹰 Ying Wong (id:1316778)

黄鹰 Ying Huang (id:1042798)

◎演 员 洪金宝 Sammo Hung Kam-Bo (id:1055887)

钟发 Fat Chung (id:1314531)

林正英 Ching-Ying Lam (id:1016823)

午马 Wu Ma (id:1054282)

杜少明 Siu-Ming To (id:1360414)

黄哈 Ha Huang (id:1374071)

太保 Po Tai (id:1312993)

刘秋生 Chau Sang Lau (id:1373863)

何柏光 Pak-Kwong Ho (id:1350540)

许莹英 Ying-Ying Hui (id:1314276)

元武 Wu Yuan (id:1344878)

彭润祥 Yun-chiang Peng (id:1431212)

陈龙 Peter Chan Lung (id:1321791)

冯敬文 Ging Man Fung (id:1341397)

陈会毅 Billy Chan (id:1280414)

元彪 Biao Yuen (id:1163752)

梁雪薇 Suet-Mei Leung (id:1459029)

◎标 签 洪金宝 / 香港 / 喜剧 / 林正英 / 恐怖 / 香港电影 / 动作 / 僵尸

◎简 介

车夫张大胆(洪金宝饰)自称胆识过人,神鬼不怕,经常与别人打赌练胆。某天他提前收工,发现老婆(梁雪薇饰)与别人私通,而对方竟是大胆的雇主谭老板(黄蝦饰)。谭老板为掩盖真相,派师爷(太保饰)寻茅山道士钱真人(陈龙饰)设坛杀害大胆。

钱真人设下圈套,借打赌之名将张大胆诱至马家祠堂,施法唤出僵尸追杀大胆。钱之师弟许真人(钟发饰)不满师兄图财害命、伤天害理恶举。他暗中协助大胆,使之最终逃过此劫。然而谭老板祸心不死,一计不成,再施一计,非置大胆于死地不可……

  1. General

  2. Unique ID : 269461161396851998198174784972366368174 (0xCAB854FB390A4A50FFA003A04C114DAE)

  3. Complete name : Encounter.of.the.Spooky.Kind.1980.2kRemastered.BluRay.1080p.2Audio.DTS-HD.MA.7.1.x265.10bit-10011@BBQDDQ.COM.mkv

  4. Format : Matroska

  5. Format version : Version 4

  6. File size : 11.9 GiB

  7. Duration : 1 h 43 min

  8. Overall bit rate mode : Variable

  9. Overall bit rate : 16.5 Mb/s

  10. Encoded date : UTC 2021-07-10 01:20:41

  11. Writing application : mkvmerge v49.0.0 ('Sick Of Losing Soulmates') 64-bit

  12. Writing library : libebml v1.4.0 + libmatroska v1.6.1


  13. Video

  14. ID : 1

  15. Format : HEVC

  16. Format/Info : High Efficiency Video Coding

  17. Format profile : Main 10@L5.1@High

  18. Codec ID : V_MPEGH/ISO/HEVC

  19. Duration : 1 h 43 min

  20. Bit rate : 13.4 Mb/s

  21. Width : 1 920 pixels

  22. Height : 804 pixels

  23. Display aspect ratio : 2.40:1

  24. Frame rate mode : Constant

  25. Frame rate : 23.976 (24000/1001/53354) FPS

  26. Color space : YUV

  27. Chroma subsampling : 4:2:0

  28. Bit depth : 10 bits

  29. Bits/(Pixel*Frame) : 0.362

  30. Stream size : 9.67 GiB (81%)

  31. Title : HEVC, x265Main10@L5.1@High, 24/1.001 fps @ 13414 kbps

  32. Writing library : x265 3.4+14-gd419c7152:[Windows][GCC 10.2.0][64 bit] 10bit

  33. Encoding settings : cpuid=533541111039 / frame-threads=4 / numa-pools=16 / wpp / pmode / pme / no-psnr / no-ssim / log-level=2 / input-csp=1 / input-res=1920x804 / interlace=0 / total-frames=148515 / level-idc=51 / high-tier=1 / uhd-bd=0 / ref=5 / no-allow-non-conformance / no-repeat-headers / annexb / no-aud / no-hrd / info / hash=0 / no-temporal-layers / open-gop / min-keyint=24 / keyint=240 / gop-lookahead=0 / bframes=6 / b-adapt=2 / b-pyramid / bframe-bias=0 / rc-lookahead=40 / lookahead-slices=0 / NTMzNTQ=uuDQuD2mJt9fsCf / scenecut=40 / hist-scenecut=0 / radl=0 / no-splice / no-intra-refresh / ctu=32 / min-cu-size=8 / no-rect / no-amp / max-tu-size=32 / tu-inter-depth=3 / tu-intra-depth=3 / limit-tu=4 / rdoq-level=2 / dynamic-rd=0.00 / no-ssim-rd / signhide / no-tskip / nr-intra=0 / nr-inter=0 / no-constrained-intra / no-strong-intra-smoothing / max-merge=4 / limit-refs=1 / limit-modes / me=3 / subme=4 / merange=25 / temporal-mvp / no-frame-dup / no-hme / weightp / weightb / no-analyze-src-pics / deblock=-3:-3 / no-sao / no-sao-non-deblock / rd=6 / selective-sao=0 / no-early-skip / rskip / no-fast-intra / no-tskip-fast / no-cu-lossless / b-intra / no-splitrd-skip / rdpenalty=0 / psy-rd=2.00 / psy-rdoq=1.00 / no-rd-refine / no-lossless / cbqpoffs=0 / crqpoffs=0 / rc=crf / crf=19.5 / qcomp=0.65 / qpstep=4 / stats-write=0 / stats-read=0 / vbv-maxrate=80000 / vbv-bufsize=80000 / vbv-init=0.9 / crf-max=0.0 / crf-min=0.0 / ipratio=1.40 / pbratio=1.30 / aq-mode=2 / aq-strength=0.85 / cutree / zone-count=0 / no-strict-cbr / qg-size=32 / no-rc-grain / qpmax=69 / qpmin=0 / no-const-vbv / sar=1 / overscan=0 / videoformat=5 / range=0 / colorprim=1 / transfer=1 / colormatrix=1 / chromaloc=0 / display-window=0 / cll=0,0 / min-luma=0 / max-luma=1023 / log2-max-poc-lsb=8 / vui-timing-info / vui-hrd-info / slices=1 / no-opt-qp-pps / no-opt-ref-list-length-pps / no-multi-pass-opt-rps / scenecut-bias=0.05 / hist-threshold=0.03 / no-opt-cu-delta-qp / no-aq-motion / no-hdr10 / no-hdr10-opt / no-dhdr10-opt / no-idr-recovery-sei / analysis-reuse-level=0 / analysis-save-reuse-level=0 / analysis-load-reuse-level=0 / scale-factor=0 / refine-intra=0 / refine-inter=0 / refine-mv=1 / refine-ctu-distortion=0 / no-limit-sao / ctu-info=0 / no-lowpass-dct / refine-analysis-type=0 / copy-pic=1 / max-ausize-factor=1.0 / no-dynamic-refine / no-single-sei / no-hevc-aq / no-svt / no-field / qp-adaptation-range=1.00 / no-scenecut-aware-qpconformance-window-offsets / right=0 / bottom=0 / NTMzNTQ= / decoder-max-rate=0

  34. Language : English

  35. Default : Yes

  36. Forced : No

  37. Color range : Limited

  38. Color primaries : BT.709

  39. Transfer characteristics : BT.709

  40. Matrix coefficients : BT.709


  41. Audio #1

  42. ID : 2

  43. Format : DTS XLL

  44. Format/Info : Digital Theater Systems

  45. Commercial name : DTS-HD Master Audio

  46. Codec ID : A_DTS

  47. Duration : 1 h 43 min

  48. Bit rate mode : Variable

  49. Bit rate : 2 384 kb/s

  50. Channel(s) : 8 channels

  51. Channel layout : C L R LFE Lb Rb Lss Rss

  52. Sampling rate : 48.0 kHz

  53. Frame rate : 93.750 FPS (512 SPF)

  54. Bit depth : 16 bits

  55. Compression mode : Lossless

  56. Stream size : 1.72 GiB (14%)

  57. Title : Cantonese DTS-HD Master Audio 7.1 @ 2383 kbps

  58. Language : Chinese

  59. Default : Yes

  60. Forced : No


  61. Audio #2

  62. ID : 3

  63. Format : AC-3

  64. Format/Info : Audio Coding 3

  65. Commercial name : Dolby Digital

  66. Codec ID : A_AC3

  67. Duration : 1 h 43 min

  68. Bit rate mode : Constant

  69. Bit rate : 640 kb/s

  70. Channel(s) : 6 channels

  71. Channel layout : L R C LFE Ls Rs

  72. Sampling rate : 48.0 kHz

  73. Frame rate : 31.250 FPS (1536 SPF)

  74. Compression mode : Lossy

  75. Stream size : 472 MiB (4%)

  76. Title : Mandarin Dolby Digital Audio 5.1 @ 640 kbps

  77. Language : Chinese

  78. Service kind : Complete Main

  79. Default : No

  80. Forced : No


  81. Text #1

  82. ID : 4

  83. Format : PGS

  84. Codec ID : S_HDMV/PGS

  85. Codec ID/Info : Picture based subtitle format used on BDs/HD-DVDs

  86. Duration : 1 h 41 min

  87. Bit rate : 32.8 kb/s

  88. Count of elements : 1917

  89. Stream size : 23.9 MiB (0%)

  90. Title : Eng/SUP

  91. Language : English

  92. Default : No

  93. Forced : No


  94. Text #2

  95. ID : 5

  96. Format : PGS

  97. Codec ID : S_HDMV/PGS

  98. Codec ID/Info : Picture based subtitle format used on BDs/HD-DVDs

  99. Duration : 1 h 42 min

  100. Bit rate : 20.2 kb/s

  101. Count of elements : 1550

  102. Stream size : 14.9 MiB (0%)

  103. Title : Chs/SUP 简体

  104. Language : Chinese

  105. Default : Yes

  106. Forced : No


  107. Text #3

  108. ID : 6

  109. Format : PGS

  110. Codec ID : S_HDMV/PGS

  111. Codec ID/Info : Picture based subtitle format used on BDs/HD-DVDs

  112. Duration : 1 h 41 min

  113. Bit rate : 26.5 kb/s

  114. Count of elements : 1546

  115. Stream size : 19.3 MiB (0%)

  116. Title : Cht/SUP 繁体

  117. Language : Chinese

  118. Default : No

  119. Forced : No


  120. Text #4

  121. ID : 7

  122. Format : PGS

  123. Codec ID : S_HDMV/PGS

  124. Codec ID/Info : Picture based subtitle format used on BDs/HD-DVDs

  125. Duration : 1 h 42 min

  126. Bit rate : 17.6 kb/s

  127. Count of elements : 2009

  128. Stream size : 12.9 MiB (0%)

  129. Title : Chs/SUP 国语简体

  130. Language : Chinese

  131. Default : No

  132. Forced : No


  133. Menu

  134. 00:00:00.000 : en:第 01 章

  135. 00:05:13.146 : en:第 02 章

  136. 00:12:28.498 : en:第 03 章

  137. 00:15:41.607 : en:第 04 章

  138. 00:22:07.952 : en:第 05 章

  139. 00:27:07.793 : en:第 06 章

  140. 00:29:58.630 : en:第 07 章

  141. 00:34:38.660 : en:第 08 章

  142. 00:39:58.479 : en:第 09 章

  143. 00:44:37.800 : en:第 10 章

  144. 00:52:07.583 : en:第 11 章

  145. 00:56:19.376 : en:第 12 章

  146. 00:59:25.145 : en:第 13 章

  147. 01:05:53.616 : en:第 14 章

  148. 01:10:20.550 : en:第 15 章

  149. 01:16:14.862 : en:第 16 章

  150. 01:20:19.815 : en:第 17 章

  151. 01:25:30.459 : en:第 18 章

  152. 01:31:49.087 : en:第 19 章

  153. 01:35:55.291 : en:第 20 章




文件下载


除非特别注明,本文『鬼打鬼[国粤语音轨/简繁字幕]Encounter.of.the.Spooky.Kind.1980.2kRemastered.BluRay.1080p.迅雷下载』来源于互联网机器人自动抓取,非本站原创。 浮游电影网不对本文拥有版权,如有侵犯,请联系邮箱:fuyouu#yandex.com[#换成@]投诉。我们会在15个工作日内删除。 但烦请转载时请标明出处:“本文转载于『浮游电影网』,原文地址:https://www.fuyouu.com/13038.html

评论吧骚年!

发表你的见解   

昵称*

E-mail*(建议输入,以便收到博主回复的提示邮件)

验证码*

您可以使用eMule或eMule Mod(Windows)、aMule(Win、Linux、Mac)等软件下载eD2k链接。。
eMule收藏集(.emulecollection)文件是您选中的所有链接的列表文件。eMule可以直接下载它们。
按住SHIFT键选择可以选中多个选择框。
可用文件名和大小选择器来选择文件。
文件名选择器帮您根据文件名称或后缀来选择文件。不分大小写。
符号使用:
和:空格( )、+
不包含:-
或:|
转义:一对英文引号("");
匹配开头:^
匹配结尾:$
例如:
选中所有名称中包含有“eMule”或“0.49c”字眼,但不包含有“exe”字眼的:emule|0.49c -exe
选中所有名称的开头是“eMule”,结尾是“0.49c”的:^emule 0.49c$
选中所有名称中带有“eMule 0.49c”的(必须是“eMule 0.49c”,中间没有别的字符,不能是“eMule fake 0.49c”),需要转义:"emule 0.49c"
大小选择器帮您根据文件大小选择文件。