当前位置: 首页 >> 欧美电影 >> 完美感觉[简繁字幕]Perfect.Sense.2011.BluRay.1080p.DTS-HD.MA5.1.x265.10bit-迅雷下载 7.24GB >> 正文

完美感觉[简繁字幕]Perfect.Sense.2011.BluRay.1080p.DTS-HD.MA5.1.x265.10bit-迅雷下载 7.24GB

2021年07月13日 22:50:05     电影发布:来源于网络     电影分类:欧美电影     评论(0)    

完美感觉[简繁字幕]Perfect.Sense.2011.BluRay.1080p.DTS HD.MA5.1.x265.10bit 迅雷下载 7.24GB 爱情片 剧情片 欧美电影  第1张

◎译 名 完美感觉 / 末日情缘(台) / 感官失乐园(港) / 遗言 / 末世之恋 / 最后决定 / 最后的世界

◎片 名 Perfect Sense

◎年 代 2011

◎产 地 英国 / 瑞典 / 丹麦 / 爱尔兰

◎类 别 剧情 / 爱情

◎语 言 英语 / 手语

◎上映日期 2011-01-24(圣丹斯电影节) / 2011-10-07(英国)

◎IMDb链接 https://www.imdb.com/title/tt1439572/

◎豆瓣评分 7.6/10 (22964人评价)

◎豆瓣链接 https://movie.douban.com/subject/3743052/

◎片 长 92分钟

◎导 演 大卫·马肯兹 David Mackenzie (id:1045234)

◎编 剧 基姆·弗帕兹·艾克森 Kim Fupz Aakeson (id:1050925)

◎演 员 伊万·麦克格雷格 Ewan McGregor (id:1012532)

伊娃·格林 Eva Green (id:1025155)

康妮·尼尔森 Connie Nielsen (id:1009298)

斯蒂芬·迪兰 Stephen Dillane (id:1036559)

艾文·布莱纳 Ewen Bremner (id:1004679)

丹尼斯·劳森 Denis Lawson (id:1106877)

安娜玛丽亚·玛琳卡 Anamaria Marinca (id:1000379)

大卫·马肯兹 David Mackenzie (id:1045234)

马克斯·李希特 Max Richter (id:1309919)

吉尔斯·纳特金斯 Giles Nuttgens (id:1293331)

特里莎·比格 Trisha Biggar (id:1278623)

◎标 签 爱情 / 英国 / 文艺 / 灾难 / 剧情 / 人性 / 2011 / 德国

◎简 介

这是一场发生在世界末日即将来临时的末世之恋。流行病学家苏珊(伊娃·格林EvaGreen)与餐厅主厨麦克(伊万·麦克格雷格EwanMcGregor)相识、相恋,但无奈此时此刻的世界正在遭受一场新型流行病的侵袭。随着流行病的蔓延,患者会伴随着情绪失控逐渐丧失味觉、嗅觉、听觉、直至最后丧失视觉。虽然苏珊和麦克都尽量努力避免患病,但当作为厨师的麦克不再能尝出食物的味道,作为科学家的苏珊也渐渐丧失感觉,这对末世情人便已知晓无人能够逃脱这场灭顶之灾。两人于是选择珍惜仅有的彼此,最后在逐渐模糊的视线中拥抱住对方。

  1. General

  2. Unique ID : 49871824914780358263949354693072158019 (0x2584F6CF28215D2D0B47B6E565E67D43)

  3. Complete name : Perfect.Sense.2011.BluRay.1080p.DTS-HD.MA5.1.x265.10bit-10011@BBQDDQ.COM.mkv

  4. Format : Matroska

  5. Format version : Version 4

  6. File size : 7.24 GiB

  7. Duration : 1 h 32 min

  8. Overall bit rate mode : Variable

  9. Overall bit rate : 11.2 Mb/s

  10. Encoded date : UTC 2021-07-08 07:27:13

  11. Writing application : mkvmerge v49.0.0 ('Sick Of Losing Soulmates') 64-bit

  12. Writing library : libebml v1.4.0 + libmatroska v1.6.1


  13. Video

  14. ID : 1

  15. Format : HEVC

  16. Format/Info : High Efficiency Video Coding

  17. Format profile : Main 10@L5.1@High

  18. Codec ID : V_MPEGH/ISO/HEVC

  19. Duration : 1 h 32 min

  20. Bit rate : 9 027 kb/s

  21. Width : 1 920 pixels

  22. Height : 818 pixels

  23. Display aspect ratio : 2.35:1

  24. Frame rate mode : Constant

  25. Frame rate : 23.976 (24000/1001/53354) FPS

  26. Color space : YUV

  27. Chroma subsampling : 4:2:0

  28. Bit depth : 10 bits

  29. Bits/(Pixel*Frame) : 0.240

  30. Stream size : 5.83 GiB (81%)

  31. Title : HEVC, x265Main10@L5.1@High, 24/1.001 fps @ 9026 kbps

  32. Writing library : x265 3.4+14-gd419c7152:[Windows][GCC 10.2.0][64 bit] 10bit

  33. Encoding settings : cpuid=533541111039 / frame-threads=3 / numa-pools=8 / wpp / pmode / pme / no-psnr / no-ssim / log-level=2 / input-csp=1 / input-res=1920x818 / interlace=0 / total-frames=132975 / level-idc=51 / high-tier=1 / uhd-bd=0 / ref=5 / no-allow-non-conformance / no-repeat-headers / annexb / no-aud / no-hrd / info / hash=0 / no-temporal-layers / open-gop / min-keyint=24 / keyint=240 / gop-lookahead=0 / bframes=6 / b-adapt=2 / b-pyramid / bframe-bias=0 / rc-lookahead=40 / lookahead-slices=0 / NTMzNTQ=uuDQuD2mJt9fsCf / scenecut=40 / hist-scenecut=0 / radl=0 / no-splice / no-intra-refresh / ctu=32 / min-cu-size=8 / no-rect / no-amp / max-tu-size=32 / tu-inter-depth=3 / tu-intra-depth=3 / limit-tu=4 / rdoq-level=2 / dynamic-rd=0.00 / no-ssim-rd / signhide / no-tskip / nr-intra=0 / nr-inter=0 / no-constrained-intra / no-strong-intra-smoothing / max-merge=4 / limit-refs=1 / limit-modes / me=3 / subme=4 / merange=25 / temporal-mvp / no-frame-dup / no-hme / weightp / weightb / no-analyze-src-pics / deblock=-3:-3 / no-sao / no-sao-non-deblock / rd=6 / selective-sao=0 / no-early-skip / rskip / no-fast-intra / no-tskip-fast / no-cu-lossless / b-intra / no-splitrd-skip / rdpenalty=0 / psy-rd=2.00 / psy-rdoq=1.00 / no-rd-refine / no-lossless / cbqpoffs=0 / crqpoffs=0 / rc=crf / crf=19.5 / qcomp=0.65 / qpstep=4 / stats-write=0 / stats-read=0 / vbv-maxrate=80000 / vbv-bufsize=80000 / vbv-init=0.9 / crf-max=0.0 / crf-min=0.0 / ipratio=1.40 / pbratio=1.30 / aq-mode=2 / aq-strength=0.85 / cutree / zone-count=0 / no-strict-cbr / qg-size=32 / no-rc-grain / qpmax=69 / qpmin=0 / no-const-vbv / sar=1 / overscan=0 / videoformat=5 / range=0 / colorprim=1 / transfer=1 / colormatrix=1 / chromaloc=0 / display-window=0 / cll=0,0 / min-luma=0 / max-luma=1023 / log2-max-poc-lsb=8 / vui-timing-info / vui-hrd-info / slices=1 / no-opt-qp-pps / no-opt-ref-list-length-pps / no-multi-pass-opt-rps / scenecut-bias=0.05 / hist-threshold=0.03 / no-opt-cu-delta-qp / no-aq-motion / no-hdr10 / no-hdr10-opt / no-dhdr10-opt / no-idr-recovery-sei / analysis-reuse-level=0 / analysis-save-reuse-level=0 / analysis-load-reuse-level=0 / scale-factor=0 / refine-intra=0 / refine-inter=0 / refine-mv=1 / refine-ctu-distortion=0 / no-limit-sao / ctu-info=0 / no-lowpass-dct / refine-analysis-type=0 / copy-pic=1 / max-ausize-factor=1.0 / no-dynamic-refine / no-single-sei / no-hevc-aq / no-svt / no-field / qp-adaptation-range=1.00 / no-scenecut-aware-qpconformance-window-offsets / right=0 / bottom=0 / NTMzNTQ= / decoder-max-rate=0

  34. Language : English

  35. Default : Yes

  36. Forced : No

  37. Color range : Limited

  38. Color primaries : BT.709

  39. Transfer characteristics : BT.709

  40. Matrix coefficients : BT.709


  41. Audio

  42. ID : 2

  43. Format : DTS XLL

  44. Format/Info : Digital Theater Systems

  45. Commercial name : DTS-HD Master Audio

  46. Codec ID : A_DTS

  47. Duration : 1 h 32 min

  48. Bit rate mode : Variable

  49. Bit rate : 2 092 kb/s

  50. Channel(s) : 6 channels

  51. Channel layout : C L R Ls Rs LFE

  52. Sampling rate : 48.0 kHz

  53. Frame rate : 93.750 FPS (512 SPF)

  54. Bit depth : 16 bits

  55. Compression mode : Lossless

  56. Stream size : 1.35 GiB (19%)

  57. Title : English DTS-HD Master Audio 5.1 @ 2092 kbps

  58. Language : English

  59. Default : Yes

  60. Forced : No


  61. Text #1

  62. ID : 3

  63. Format : PGS

  64. Codec ID : S_HDMV/PGS

  65. Codec ID/Info : Picture based subtitle format used on BDs/HD-DVDs

  66. Duration : 1 h 27 min

  67. Bit rate : 36.4 kb/s

  68. Count of elements : 1311

  69. Stream size : 22.8 MiB (0%)

  70. Title : Eng/SUP

  71. Language : English

  72. Default : No

  73. Forced : No


  74. Text #2

  75. ID : 4

  76. Format : PGS

  77. Codec ID : S_HDMV/PGS

  78. Codec ID/Info : Picture based subtitle format used on BDs/HD-DVDs

  79. Duration : 1 h 26 min

  80. Bit rate : 28.8 kb/s

  81. Count of elements : 1297

  82. Stream size : 17.8 MiB (0%)

  83. Title : Chs/SUP 简体

  84. Language : Chinese

  85. Default : Yes

  86. Forced : No


  87. Text #3

  88. ID : 5

  89. Format : PGS

  90. Codec ID : S_HDMV/PGS

  91. Codec ID/Info : Picture based subtitle format used on BDs/HD-DVDs

  92. Duration : 1 h 26 min

  93. Bit rate : 29.6 kb/s

  94. Count of elements : 1297

  95. Stream size : 18.3 MiB (0%)

  96. Title : Cht/SUP 繁体

  97. Language : Chinese

  98. Default : No

  99. Forced : No


  100. Menu

  101. 00:00:00.000 : en:第 01 章

  102. 00:07:29.407 : en:第 02 章

  103. 00:16:38.456 : en:第 03 章

  104. 00:24:44.483 : en:第 04 章

  105. 00:31:49.908 : en:第 05 章

  106. 00:40:39.479 : en:第 06 章

  107. 00:48:23.192 : en:第 07 章

  108. 00:57:06.048 : en:第 08 章

  109. 01:04:12.974 : en:第 09 章

  110. 01:11:49.305 : en:第 10 章

  111. 01:20:32.870 : en:第 11 章

  112. 01:27:38.003 : en:第 12 章



文件下载


除非特别注明,本文『完美感觉[简繁字幕]Perfect.Sense.2011.BluRay.1080p.DTS-HD.MA5.1.x265.10bit-迅雷下载 7.24GB』来源于互联网机器人自动抓取,非本站原创。 浮游电影网不对本文拥有版权,如有侵犯,请联系邮箱:fuyouu#yandex.com[#换成@]投诉。我们会在15个工作日内删除。 但烦请转载时请标明出处:“本文转载于『浮游电影网』,原文地址:https://www.fuyouu.com/13036.html

评论吧骚年!

发表你的见解   

昵称*

E-mail*(建议输入,以便收到博主回复的提示邮件)

验证码*

您可以使用eMule或eMule Mod(Windows)、aMule(Win、Linux、Mac)等软件下载eD2k链接。。
eMule收藏集(.emulecollection)文件是您选中的所有链接的列表文件。eMule可以直接下载它们。
按住SHIFT键选择可以选中多个选择框。
可用文件名和大小选择器来选择文件。
文件名选择器帮您根据文件名称或后缀来选择文件。不分大小写。
符号使用:
和:空格( )、+
不包含:-
或:|
转义:一对英文引号("");
匹配开头:^
匹配结尾:$
例如:
选中所有名称中包含有“eMule”或“0.49c”字眼,但不包含有“exe”字眼的:emule|0.49c -exe
选中所有名称的开头是“eMule”,结尾是“0.49c”的:^emule 0.49c$
选中所有名称中带有“eMule 0.49c”的(必须是“eMule 0.49c”,中间没有别的字符,不能是“eMule fake 0.49c”),需要转义:"emule 0.49c"
大小选择器帮您根据文件大小选择文件。