当前位置: 首页 >> 欧美电影 >> 切尔诺贝利[双语字幕].Chernobyl.Abyss.2021.1080p.BluRay.x264.DTS-迅雷下载 14.47GB >> 正文

切尔诺贝利[双语字幕].Chernobyl.Abyss.2021.1080p.BluRay.x264.DTS-迅雷下载 14.47GB

2021年07月13日 00:35:38     电影发布:来源于网络     电影分类:欧美电影     评论(0)    

切尔诺贝利[双语字幕].Chernobyl.Abyss.2021.1080p.BluRay.x264.DTS 迅雷下载 14.47GB 灾难片 剧情片 欧美电影  第1张

◎译 名 切尔诺贝利 / Chernobyl / Chernobyl: Abyss / Chernobyl 1986 / Чернобыль: Бездна

◎片 名 Чернобыль

◎年 代 2021

◎产 地 俄罗斯

◎类 别 剧情 / 灾难

◎语 言 俄语

◎上映日期 2021-04-15(俄罗斯)

◎IMDb链接 https://www.imdb.com/title/tt10648714/

◎豆瓣评分 6.4/10 (1255人评价)

◎豆瓣链接 https://movie.douban.com/subject/34966152/

◎片 长 136分钟

◎导 演 丹尼拉·科兹洛夫斯基 Danila Kozlovsky (id:1213388)

◎编 剧 埃琳娜·伊万诺娃 Elena Ivanova (id:1458523)

阿列克谢·卡扎科夫 Aleksey Kazakov (id:1458524)

◎演 员 丹尼拉·科兹洛夫斯基 Danila Kozlovsky (id:1213388)

奥莎娜·阿金什那 Oksana Akinshina (id:1000376)

菲利普·阿德耶夫 Fillip Adeyev (id:1247483)

拉芙珊娜·库珂娃 Ravshana Kurkova (id:1406158)

尼古拉·科扎克 Nikolay Kozak (id:1458525)

伊戈尔·切涅维奇 Igor Chernevich (id:1314918)

阿图尔·贝沙斯特尼 Artur Beschastnyy (id:1458528)

尼古拉·萨姆索诺夫 Nikolay Samsonov (id:1449296)

安东·施瓦茨 Anton Shwartz (id:1458529)

安德烈·阿尔查科夫 Andrey Archakov (id:1458530)

萨维尔·塔德沃西安 Samvel Tadevosian (id:1458531)

马克·贾尼塞洛 Mark Janicello (id:1458533)

德米特里·马特维耶夫 Dmitrii Matveev (id:1458532)

◎标 签 灾难 / 俄罗斯 / 历史 / 人性 / 剧情 / 苏联 / 社会 / 2021

◎简 介

这是俄罗斯第一部大型电影,讲述了切尔诺贝利核电站事故的后果以及为避免全球灾难付出生命代价的人们的复原情况。并将欧洲大陆的大部分地区变成一个巨大的异地区和无人居住的沙漠。主角是消防队员阿列克谢,初看起来不像英雄。瓦莱尔卡工程师和鲍里斯的潜水员自愿同他一起去进行危险的突袭。几乎没有时间制定详细的计划。由于熔化的堆芯临近,反应堆容器内的水每小时都变得越来越热。该小组面临着一个致命的任务,一个最危险的任务-去地狱,也许是最可怕的灾难后果。

  1. General

  2. Unique ID : 255696757833188689125220939902683459288 (0xC05D677D8AB8327E3CAD15710C9C2ED8)

  3. Complete name : Chernobyl.Abyss.2021.1080p.BluRay.x264.DTS-10008@BBQDDQ.COM.mkv

  4. Format : Matroska

  5. Format version : Version 4

  6. File size : 14.5 GiB

  7. Duration : 2 h 16 min

  8. Overall bit rate : 15.2 Mb/s

  9. Movie name : Chernobyl Abyss 2021

  10. Encoded date : UTC 2021-07-11 00:17:29

  11. Writing application : mkvmerge v58.0.0 ('Supper's Ready') 64-bit

  12. Writing library : libebml v1.4.2 + libmatroska v1.6.4


  13. Video

  14. ID : 1

  15. Format : AVC

  16. Format/Info : Advanced Video Codec

  17. Format profile : High@L4.1

  18. Format settings : CABAC / 4 Ref Frames

  19. Format settings, CABAC : Yes

  20. Format settings, Reference frames : 4 frames

  21. Codec ID : V_MPEG4/ISO/AVC

  22. Duration : 2 h 16 min

  23. Bit rate : 13.6 Mb/s

  24. Width : 1 920 pixels

  25. Height : 800 pixels

  26. Display aspect ratio : 2.40:1

  27. Frame rate mode : Constant

  28. Frame rate : 24.000 FPS

  29. Color space : YUV

  30. Chroma subsampling : 4:2:0

  31. Bit depth : 8 bits

  32. Scan type : Progressive

  33. Bits/(Pixel*Frame) : 0.370

  34. Stream size : 13.0 GiB (90%)

  35. Writing library : x264 core 163 r3059+79M f2a8266 t_mod_test_xavc [(8 & 10)-bit@all X86_64]

  36. Encoding settings : cabac=1 / ref=4 / deblock=1:-3:-3 / analyse=0x3:0x133 / me=umh / subme=11 / psy=1 / fade_compensate=0.00 / psy_rd=1.00:0.00 / mixed_ref=1 / me_range=48 / chroma_me=1 / trellis=2 / 8x8dct=1 / cqm=0 / deadzone=21,11 / fast_pskip=0 / chroma_qp_offset=-3 / threads=25 / lookahead_threads=6 / sliced_threads=0 / nr=0 / decimate=0 / interlaced=0 / NTMzNTQ= / bluray_compat=0 / constrained_intra=0 / fgo=0 / bframes=11 / b_pyramid=2 / b_adapt=2 / b_bias=0 / direct=3 / weightb=1 / open_gop=0 / weightp=2 / keyint=240 / keyint_min=1 / NTMzNTQ=uuDQuD2mJt9fsCf / scenecut=40 / intra_refresh=0 / rc_lookahead=72 / rc=crf / mbtree=0 / crf=17.0000 / qcomp=0.65 / qpmin=0:0:0 / qpmax=69:69:69 / qpstep=4 / vbv_maxrate=62500 / vbv_bufsize=78125 / crf_max=0.0 / nal_hrd=none / filler=0 / NTMzNTQ=LmsMAP37EqsCpk / ip_ratio=1.40 / pb_ratio=1.30 / aq=3:0.80 / aq-sensitivity=10.00 / aq-factor=1.00:1.00:1.00 / aq2=0 / aq3=0

  37. Default : Yes

  38. Forced : No


  39. Audio

  40. ID : 2

  41. ID in the original source medium : 4353 (0x1101)

  42. Format : DTS

  43. Format/Info : Digital Theater Systems

  44. Codec ID : A_DTS

  45. Duration : 2 h 16 min

  46. Bit rate mode : Constant

  47. Bit rate : 1 509 kb/s

  48. Channel(s) : 6 channels

  49. Channel layout : C L R Ls Rs LFE

  50. Sampling rate : 48.0 kHz

  51. Frame rate : 93.750 FPS (512 SPF)

  52. Bit depth : 24 bits

  53. Compression mode : Lossy

  54. Stream size : 1.44 GiB (10%)

  55. Language : Russian

  56. Default : Yes

  57. Forced : No

  58. Original source medium : Blu-ray


  59. Text #1

  60. ID : 3

  61. ID in the original source medium : 4610 (0x1202)

  62. Format : PGS

  63. Muxing mode : zlib

  64. Codec ID : S_HDMV/PGS

  65. Codec ID/Info : Picture based subtitle format used on BDs/HD-DVDs

  66. Duration : 2 h 8 min

  67. Bit rate : 27.1 kb/s

  68. Count of elements : 2055

  69. Stream size : 24.9 MiB (0%)

  70. Title : chs&eng

  71. Language : Chinese

  72. Default : Yes

  73. Forced : No

  74. Original source medium : Blu-ray


  75. Text #2

  76. ID : 4

  77. ID in the original source medium : 4611 (0x1203)

  78. Format : PGS

  79. Muxing mode : zlib

  80. Codec ID : S_HDMV/PGS

  81. Codec ID/Info : Picture based subtitle format used on BDs/HD-DVDs

  82. Duration : 2 h 8 min

  83. Bit rate : 27.4 kb/s

  84. Count of elements : 2055

  85. Stream size : 25.2 MiB (0%)

  86. Title : cht&eng

  87. Language : Chinese

  88. Default : No

  89. Forced : No

  90. Original source medium : Blu-ray


  91. Text #3

  92. ID : 5

  93. ID in the original source medium : 4612 (0x1204)

  94. Format : PGS

  95. Muxing mode : zlib

  96. Codec ID : S_HDMV/PGS

  97. Codec ID/Info : Picture based subtitle format used on BDs/HD-DVDs

  98. Duration : 2 h 8 min

  99. Bit rate : 16.5 kb/s

  100. Count of elements : 2055

  101. Stream size : 15.2 MiB (0%)

  102. Title : chs

  103. Language : Chinese

  104. Default : No

  105. Forced : No

  106. Original source medium : Blu-ray


  107. Text #4

  108. ID : 6

  109. ID in the original source medium : 4613 (0x1205)

  110. Format : PGS

  111. Muxing mode : zlib

  112. Codec ID : S_HDMV/PGS

  113. Codec ID/Info : Picture based subtitle format used on BDs/HD-DVDs

  114. Duration : 2 h 8 min

  115. Bit rate : 16.7 kb/s

  116. Count of elements : 2055

  117. Stream size : 15.4 MiB (0%)

  118. Title : cht

  119. Language : Chinese

  120. Default : No

  121. Forced : No

  122. Original source medium : Blu-ray


  123. Menu

  124. 00:00:00.000 : Chapter 01

  125. 00:17:18.916 : Chapter 02

  126. 00:34:18.541 : Chapter 03

  127. 00:50:42.375 : Chapter 04

  128. 01:07:19.583 : Chapter 05

  129. 01:25:18.000 : Chapter 06

  130. 01:36:17.958 : Chapter 07

  131. 01:47:06.708 : Chapter 08

  132. 02:03:34.958 : Chapter 09

  133. 02:07:12.125 : Chapter 10


文件下载


除非特别注明,本文『切尔诺贝利[双语字幕].Chernobyl.Abyss.2021.1080p.BluRay.x264.DTS-迅雷下载 14.47GB』来源于互联网机器人自动抓取,非本站原创。 浮游电影网不对本文拥有版权,如有侵犯,请联系邮箱:fuyouu#yandex.com[#换成@]投诉。我们会在15个工作日内删除。 但烦请转载时请标明出处:“本文转载于『浮游电影网』,原文地址:https://www.fuyouu.com/13007.html

评论吧骚年!

发表你的见解   

昵称*

E-mail*(建议输入,以便收到博主回复的提示邮件)

验证码*

您可以使用eMule或eMule Mod(Windows)、aMule(Win、Linux、Mac)等软件下载eD2k链接。。
eMule收藏集(.emulecollection)文件是您选中的所有链接的列表文件。eMule可以直接下载它们。
按住SHIFT键选择可以选中多个选择框。
可用文件名和大小选择器来选择文件。
文件名选择器帮您根据文件名称或后缀来选择文件。不分大小写。
符号使用:
和:空格( )、+
不包含:-
或:|
转义:一对英文引号("");
匹配开头:^
匹配结尾:$
例如:
选中所有名称中包含有“eMule”或“0.49c”字眼,但不包含有“exe”字眼的:emule|0.49c -exe
选中所有名称的开头是“eMule”,结尾是“0.49c”的:^emule 0.49c$
选中所有名称中带有“eMule 0.49c”的(必须是“eMule 0.49c”,中间没有别的字符,不能是“eMule fake 0.49c”),需要转义:"emule 0.49c"
大小选择器帮您根据文件大小选择文件。