当前位置: 首页 >> 欧美电影 >> 第一归正会[简繁字幕]First.Reformed.2017.1080p.BluRay.x264.DTS-迅雷下载 9.19GB >> 正文

第一归正会[简繁字幕]First.Reformed.2017.1080p.BluRay.x264.DTS-迅雷下载 9.19GB

2021年07月08日 16:27:52     电影发布:来源于网络     电影分类:欧美电影     评论(0)    

第一归正会[简繁字幕]First.Reformed.2017.1080p.BluRay.x264.DTS 迅雷下载 9.19GB 惊悚片 剧情片 欧美电影  第1张

◎译 名 第一归正会 / 牧师的最后诱惑(港 / 台) / 第一次重组 / 重组教堂

◎片 名 First Reformed

◎年 代 2017

◎产 地 美国 / 英国 / 澳大利亚

◎类 别 剧情 / 惊悚

◎语 言 英语

◎上映日期 2017-08-31(威尼斯电影节) / 2018-05-18(美国) / 2018-07-13(英国)

◎IMDb评分 7.1/10 from 49651 users

◎IMDb链接 https://www.imdb.com/title/tt6053438

◎豆瓣评分 6.8/10 from 4197 users

◎豆瓣链接 https://movie.douban.com/subject/26872478/

◎片 长 113分钟

◎导 演 保罗·施拉德 Paul Schrader

◎编 剧 保罗·施拉德 Paul Schrader

◎主 演 伊桑·霍克 Ethan Hawke

阿曼达·塞弗里德 Amanda Seyfried

塞德里克·凯尔斯 Cedric the Entertainer

维多利亚·希尔 Victoria Hill

菲利普·埃丁格 Philip Ettinger

迈克尔·加斯顿 Michael Gaston

克里斯托弗·迪伦·怀特 Christopher Dylan White

弗兰克·罗德里格斯 Frank Rodriguez

泰勒?伯克 Tyler Bourke

Van Hansis

Del Montgomery

艾瑞卡·菲 Erica Fae

罗纳德·皮特 Ronald Peet

◎标 签 美国 | 宗教 | 剧情 | 2017 | 伊桑·霍克 | 惊悚 | 保罗·施拉德 | 威尼斯电影节

◎简 介

伊桑·霍克扮演一个前军队的牧师,他在儿子不幸去世之后始终沉浸在悲痛中,阿曼达·塞弗里德扮演的女主角是一个教堂成员,曾是个激进环保主义者,遭遇了丈夫自杀,于是两个受伤的人有了人生交集。

◎获奖情况

第91届奥斯卡金像奖(2019)

最佳原创剧本(提名) 保罗·施拉德

第74届威尼斯电影节(2017)

主竞赛单元 金狮奖 (提名) 保罗·施拉德

第84届纽约影评人协会奖(2018)

最佳男主角 伊桑·霍克

最佳剧本 保罗·施拉德

第90届美国国家评论协会奖(2018)

最佳原创剧本 保罗·施拉德

年度佳片

第24届美国评论家选择电影奖(2019)

最佳男主角(提名) 伊桑·霍克

最佳原创剧本 保罗·施拉德

第34届美国独立精神奖(2019)

最佳影片(提名)

最佳导演(提名) 保罗·施拉德

最佳男主角 伊桑·霍克

最佳剧本(提名) 保罗·施拉德

第28届哥谭独立电影奖(2018)

最佳影片(提名)

最佳男演员 伊桑·霍克

最佳剧本

第19届美国电影学会奖(2018)

年度佳片

第23届金卫星奖(2019)

电影部门 剧情片最佳男主角(提名) 伊桑·霍克

电影部门 最佳独立片(提名)

电影部门 最佳原创剧本(提名) 保罗·施拉德

第53届美国国家影评人协会奖(2019)

最佳男主角 伊桑·霍克

第17届华盛顿影评人协会奖(2018)

最佳男主角(提名) 伊桑·霍克

最佳原创剧本(提名) 保罗·施拉德

第39届伦敦影评人协会奖(2019)

年度电影(提名)

年度编剧(提名) 保罗·施拉德

年度男主角 伊桑·霍克

第39届波士顿影评人协会奖(2018)

最佳男主角(提名) 伊桑·霍克

第44届洛杉矶影评人协会奖(2018)

最佳男主角 伊桑·霍克

第31届芝加哥影评人协会奖(2018)

最佳影片(提名)

最佳导演(提名) 保罗·施拉德

最佳男主角 伊桑·霍克

最佳原创剧本 保罗·施拉德

第17届旧金山影评人协会奖(2018)

最佳影片(提名)

最佳导演(提名) 保罗·施拉德

最佳男主角 伊桑·霍克

最佳原创剧本 保罗·施拉德

第18届温哥华影评人协会奖(2018)

最佳影片(提名)

最佳导演 保罗·施拉德

最佳男主角 伊桑·霍克

最佳剧本 保罗·施拉德

第52届堪萨斯影评人协会奖(2018)

最佳导演(提名) 保罗·施拉德

最佳男主角 伊桑·霍克

第12届底特律影评人协会奖(2018)

最佳男主角 伊桑·霍克

第3届亚特兰大影评人协会奖(2018)

十佳影片

最佳男主角 伊桑·霍克

第22届美国在线影评人协会奖(2019)

最佳影片(提名)

最佳男主角 伊桑·霍克

最佳原创剧本 保罗·施拉德

  1. General

  2. Unique ID : 117982128991041390665217624366098136484 (0x58C28811365FF148FEF799F51743BDA4)

  3. Complete name : First.Reformed.2017.1080p.BluRay.x264.DTS-PTH.mkv

  4. Format : Matroska

  5. Format version : Version 4

  6. File size : 9.19 GiB

  7. Duration : 1 h 53 min

  8. Overall bit rate : 11.6 Mb/s

  9. Encoded date : UTC 2021-07-07 04:18:40

  10. Writing application : mkvmerge v58.0.0 ('Supper's Ready') 64-bit

  11. Writing library : libebml v1.4.2 + libmatroska v1.6.4


  12. Video

  13. ID : 1

  14. Format : AVC

  15. Format/Info : Advanced Video Codec

  16. Format profile : High@L4.1

  17. Format settings : CABAC / 4 Ref Frames

  18. Format settings, CABAC : Yes

  19. Format settings, Reference frames : 4 frames

  20. Codec ID : V_MPEG4/ISO/AVC

  21. Duration : 1 h 53 min

  22. Bit rate : 10.0 Mb/s

  23. Width : 1 442 pixels

  24. Height : 1 080 pixels

  25. Display aspect ratio : 4:3

  26. Frame rate mode : Constant

  27. Frame rate : 23.976 (24000/1001/53354) FPS

  28. Color space : YUV

  29. Chroma subsampling : 4:2:0

  30. Bit depth : 8 bits

  31. Scan type : Progressive

  32. Bits/(Pixel*Frame) : 0.269

  33. Stream size : 7.93 GiB (86%)

  34. Writing library : x264 core 163 r3059+79M f2a8266 t_mod_test_xavc [(8 & 10)-bit@all X86_64]

  35. Encoding settings : cabac=1 / ref=4 / deblock=1:-3:-3 / analyse=0x3:0x133 / me=umh / subme=11 / psy=1 / fade_compensate=0.00 / psy_rd=1.00:0.00 / mixed_ref=1 / me_range=48 / chroma_me=1 / trellis=2 / 8x8dct=1 / cqm=0 / deadzone=21,11 / fast_pskip=0 / chroma_qp_offset=-3 / threads=24 / lookahead_threads=6 / sliced_threads=0 / nr=0 / decimate=0 / interlaced=0 / NTMzNTQ= / bluray_compat=0 / constrained_intra=0 / fgo=0 / bframes=11 / b_pyramid=2 / b_adapt=2 / b_bias=0 / direct=3 / weightb=1 / open_gop=0 / weightp=2 / keyint=240 / keyint_min=1 / NTMzNTQ=uuDQuD2mJt9fsCf / scenecut=40 / intra_refresh=0 / rc_lookahead=72 / rc=crf / mbtree=0 / crf=17.0000 / qcomp=0.70 / qpmin=0:0:0 / qpmax=69:69:69 / qpstep=4 / vbv_maxrate=62500 / vbv_bufsize=78125 / crf_max=0.0 / nal_hrd=none / filler=0 / NTMzNTQ=LmsMAP37EqsCpk / ip_ratio=1.40 / pb_ratio=1.30 / aq=3:0.90 / aq-sensitivity=10.00 / aq-factor=1.00:1.00:1.00 / aq2=0 / aq3=0

  36. Language : English

  37. Default : Yes

  38. Forced : No


  39. Audio

  40. ID : 2

  41. Format : DTS

  42. Format/Info : Digital Theater Systems

  43. Codec ID : A_DTS

  44. Duration : 1 h 53 min

  45. Bit rate mode : Constant

  46. Bit rate : 1 509 kb/s

  47. Channel(s) : 6 channels

  48. Channel layout : C L R Ls Rs LFE

  49. Sampling rate : 48.0 kHz

  50. Frame rate : 93.750 FPS (512 SPF)

  51. Bit depth : 24 bits

  52. Compression mode : Lossy

  53. Stream size : 1.19 GiB (13%)

  54. Language : English

  55. Default : Yes

  56. Forced : No


  57. Text #1

  58. ID : 3

  59. Format : PGS

  60. Muxing mode : zlib

  61. Codec ID : S_HDMV/PGS

  62. Codec ID/Info : Picture based subtitle format used on BDs/HD-DVDs

  63. Duration : 1 h 47 min

  64. Bit rate : 44.4 kb/s

  65. Count of elements : 2024

  66. Stream size : 34.0 MiB (0%)

  67. Title : 简英

  68. Language : Chinese

  69. Default : Yes

  70. Forced : No


  71. Text #2

  72. ID : 4

  73. Format : PGS

  74. Muxing mode : zlib

  75. Codec ID : S_HDMV/PGS

  76. Codec ID/Info : Picture based subtitle format used on BDs/HD-DVDs

  77. Duration : 1 h 47 min

  78. Bit rate : 44.7 kb/s

  79. Count of elements : 2024

  80. Stream size : 34.2 MiB (0%)

  81. Title : 繁英

  82. Language : Chinese

  83. Default : No

  84. Forced : No


  85. Text #3

  86. ID : 5

  87. Format : PGS

  88. Muxing mode : zlib

  89. Codec ID : S_HDMV/PGS

  90. Codec ID/Info : Picture based subtitle format used on BDs/HD-DVDs

  91. Duration : 1 h 47 min

  92. Bit rate : 25.2 kb/s

  93. Count of elements : 2023

  94. Stream size : 19.3 MiB (0%)

  95. Title : 简中

  96. Language : Chinese

  97. Default : No

  98. Forced : No


  99. Text #4

  100. ID : 6

  101. Format : PGS

  102. Muxing mode : zlib

  103. Codec ID : S_HDMV/PGS

  104. Codec ID/Info : Picture based subtitle format used on BDs/HD-DVDs

  105. Duration : 1 h 47 min

  106. Bit rate : 25.5 kb/s

  107. Count of elements : 2023

  108. Stream size : 19.6 MiB (0%)

  109. Title : 繁中

  110. Language : Chinese

  111. Default : No

  112. Forced : No


  113. Text #5

  114. ID : 7

  115. Format : PGS

  116. Muxing mode : zlib

  117. Codec ID : S_HDMV/PGS

  118. Codec ID/Info : Picture based subtitle format used on BDs/HD-DVDs

  119. Duration : 1 h 51 min

  120. Bit rate : 41.3 kb/s

  121. Count of elements : 2810

  122. Stream size : 32.9 MiB (0%)

  123. Title : 英语

  124. Language : English

  125. Default : No

  126. Forced : No


  127. Menu

  128. 00:00:00.000 : 第 01 章

  129. 00:07:32.743 : 第 02 章

  130. 00:08:48.361 : 第 03 章

  131. 00:21:52.728 : 第 04 章

  132. 00:30:52.725 : 第 05 章

  133. 00:36:41.949 : 第 06 章

  134. 00:41:54.261 : 第 07 章

  135. 00:50:02.958 : 第 08 章

  136. 00:55:18.481 : 第 09 章

  137. 01:04:40.668 : 第 10 章

  138. 01:10:59.922 : 第 11 章

  139. 01:16:19.241 : 第 12 章

  140. 01:25:24.118 : 第 13 章

  141. 01:30:49.485 : 第 14 章

  142. 01:38:48.964 : 第 15 章

  143. 01:45:22.524 : 第 16 章



文件下载


除非特别注明,本文『第一归正会[简繁字幕]First.Reformed.2017.1080p.BluRay.x264.DTS-迅雷下载 9.19GB』来源于互联网机器人自动抓取,非本站原创。 浮游电影网不对本文拥有版权,如有侵犯,请联系邮箱:fuyouu#yandex.com[#换成@]投诉。我们会在15个工作日内删除。 但烦请转载时请标明出处:“本文转载于『浮游电影网』,原文地址:https://www.fuyouu.com/12948.html

评论吧骚年!

发表你的见解   

昵称*

E-mail*(建议输入,以便收到博主回复的提示邮件)

验证码*

您可以使用eMule或eMule Mod(Windows)、aMule(Win、Linux、Mac)等软件下载eD2k链接。。
eMule收藏集(.emulecollection)文件是您选中的所有链接的列表文件。eMule可以直接下载它们。
按住SHIFT键选择可以选中多个选择框。
可用文件名和大小选择器来选择文件。
文件名选择器帮您根据文件名称或后缀来选择文件。不分大小写。
符号使用:
和:空格( )、+
不包含:-
或:|
转义:一对英文引号("");
匹配开头:^
匹配结尾:$
例如:
选中所有名称中包含有“eMule”或“0.49c”字眼,但不包含有“exe”字眼的:emule|0.49c -exe
选中所有名称的开头是“eMule”,结尾是“0.49c”的:^emule 0.49c$
选中所有名称中带有“eMule 0.49c”的(必须是“eMule 0.49c”,中间没有别的字符,不能是“eMule fake 0.49c”),需要转义:"emule 0.49c"
大小选择器帮您根据文件大小选择文件。