当前位置: 首页 >> 欧美电影 >> 隐藏人物[双语字幕]Hidden.Figures.2016.1080p.BluRay.x264.DTS-迅雷下载 12.61GB >> 正文

隐藏人物[双语字幕]Hidden.Figures.2016.1080p.BluRay.x264.DTS-迅雷下载 12.61GB

2021年07月08日 16:23:55     电影发布:来源于网络     电影分类:欧美电影     评论(0)    

隐藏人物[双语字幕]Hidden.Figures.2016.1080p.BluRay.x264.DTS 迅雷下载 12.61GB 传记 历史 剧情片 欧美电影  第1张

◎译 名 隐藏人物 / NASA无名英雌(港) / 关键少数(台)

◎片 名 Hidden Figures

◎年 代 2016

◎产 地 美国

◎类 别 剧情 / 传记 / 历史

◎语 言 英语

◎上映日期 2016-12-25(美国)

◎IMDb评分 7.8/10 from 198653 users

◎IMDb链接 https://www.imdb.com/title/tt4846340

◎豆瓣评分 8.8/10 from 134944 users

◎豆瓣链接 https://movie.douban.com/subject/26615208/

◎片 长 127分钟

◎导 演 西奥多·梅尔菲 Theodore Melfi

◎编 剧 艾莉森·施罗德 Allison Schroeder / 西奥多·梅尔菲 Theodore Melfi / 玛戈特·李·谢特利 Margot Lee Shetterly

◎主 演 塔拉吉·P·汉森 Taraji P. Henson

奥克塔维亚·斯宾瑟 Octavia Spencer

加奈儿·梦奈 Janelle Monáe

凯文·科斯特纳 Kevin Costner

克斯汀·邓斯特 Kirsten Dunst

吉姆·帕森斯 Jim Parsons

马赫沙拉·阿里 Mahershala Ali

阿尔迪斯·霍吉 Aldis Hodge

格伦·鲍威尔 Glen Powell

金贝利·奎恩 Kimberly Quinn

奥莱克·克鲁帕 Olek Krupa

库尔特·克劳斯 Kurt Krause

玛戈特·李·谢特利 Margot Lee Shetterly

罗达·格里菲丝 Rhoda Griffis

马丽娅豪厄尔 Maria Howell

斯科特·迈克尔·摩根 Scott Michael Morgan

维布尔·弗利茨杰拉德 Wilbur Fitzgerald

◎标 签 种族 | 女性 | 励志 | 美国 | 女权 | 传记 | 历史 | 剧情

◎简 介

影片讲述1962年,汉森饰演的非裔美国数学家与斯宾瑟和梦奈两位“同事”组成智囊团,为宇航员约翰·格伦成功绕地球轨道飞行做出贡献。

◎获奖情况

第89届奥斯卡金像奖(2017)

最佳影片(提名) 法瑞尔·威廉姆斯 / 唐娜·吉格里奥蒂 / 詹诺·托平 / 彼得·切宁 / 西奥多·梅尔菲

最佳女配角(提名) 奥克塔维亚·斯宾瑟

最佳改编剧本(提名) 艾莉森·施罗德 / 西奥多·梅尔菲

第74届金球奖(2017)

电影类 最佳女配角(提名) 奥克塔维亚·斯宾瑟

电影类 最佳原创配乐(提名)

第70届英国电影学院奖(2017)

电影奖 最佳改编剧本(提名) 艾莉森·施罗德 / 西奥多·梅尔菲

第41届日本电影学院奖(2018)

最佳外语片(提名)

第26届MTV电影奖(2017)

MTV电影奖 最佳表演(提名) 塔拉吉·P·汉森

第23届美国演员工会奖(2017)

电影奖 最佳女配角(提名) 奥克塔维亚·斯宾瑟

电影奖 最佳群戏

第69届美国编剧工会奖(2017)

电影奖 最佳改编剧本(提名)

第28届美国制片人工会奖(2017)

最佳电影制片人奖(提名)

第21届美国艺术指导工会奖(2017)

电影奖 最佳历史电影艺术指导

第19届美国服装设计工会奖(2017)

年代电影最佳服装设计

第88届美国国家评论协会奖(2016)

最佳群戏

年度佳片(提名)

第22届美国评论家选择电影奖(2017)

最佳女配角(提名) 加奈儿·梦奈

最佳改编剧本(提名) 艾莉森·施罗德 / 西奥多·梅尔菲

第21届金卫星奖(2017)

电影部门 最佳剧情片(提名)

电影部门 剧情片最佳女主角(提名) 塔拉吉·P·汉森

电影部门 最佳女配角(提名) 奥克塔维亚·斯宾瑟

电影部门 最佳改编剧本(提名) 艾莉森·施罗德

电影部门 最佳原创配乐(提名) 汉斯·季默

电影部门 最佳原创歌曲(提名) 法瑞尔·威廉姆斯

电影最佳群像

第20届好莱坞电影奖(2016)

年度艺术指导

最受关注奖 加奈儿·梦奈

第29届芝加哥影评人协会奖(2016)

最佳女配角(提名) 加奈儿·梦奈

最具潜力演员(提名) 加奈儿·梦奈

第20届美国在线影评人协会奖(2017)

最佳女配角(提名) 奥克塔维亚·斯宾瑟

第4届豆瓣电影年度榜单(2017)

最受关注的非院线电影(提名)

2月最受关注电影(提名)

  1. General

  2. Unique ID : 210806272988007377131927397210355554222 (0x9E97CFB55E90B6C0893D983BB1BA57AE)

  3. Complete name : Hidden.Figures.2016.1080p.BluRay.x264.DTS-PTH.mkv

  4. Format : Matroska

  5. Format version : Version 4

  6. File size : 12.6 GiB

  7. Duration : 2 h 6 min

  8. Overall bit rate : 14.2 Mb/s

  9. Encoded date : UTC 2021-07-07 02:10:11

  10. Writing application : mkvmerge v56.1.0 ('My Friend') 64-bit

  11. Writing library : libebml v1.4.2 + libmatroska v1.6.4


  12. Video

  13. ID : 1

  14. Format : AVC

  15. Format/Info : Advanced Video Codec

  16. Format profile : High@L4.1

  17. Format settings : CABAC / 4 Ref Frames

  18. Format settings, CABAC : Yes

  19. Format settings, Reference frames : 4 frames

  20. Codec ID : V_MPEG4/ISO/AVC

  21. Duration : 2 h 6 min

  22. Bit rate : 12.6 Mb/s

  23. Width : 1 920 pixels

  24. Height : 804 pixels

  25. Display aspect ratio : 2.40:1

  26. Frame rate mode : Constant

  27. Frame rate : 23.976 (24000/1001/53354) FPS

  28. Color space : YUV

  29. Chroma subsampling : 4:2:0

  30. Bit depth : 8 bits

  31. Scan type : Progressive

  32. Bits/(Pixel*Frame) : 0.341

  33. Stream size : 11.2 GiB (89%)

  34. Writing library : x264 core 161 r3048+53M 0749c36 t_mod_New [(8 & 10)-bit@all X86_64]

  35. Encoding settings : cabac=1 / ref=4 / deblock=1:-3:-3 / analyse=0x3:0x133 / me=umh / subme=11 / psy=1 / fade_compensate=0.00 / psy_rd=1.00:0.00 / mixed_ref=1 / me_range=48 / chroma_me=1 / trellis=2 / 8x8dct=1 / cqm=0 / deadzone=21,11 / fast_pskip=0 / chroma_qp_offset=-3 / threads=24 / lookahead_threads=4 / sliced_threads=0 / nr=0 / decimate=0 / interlaced=0 / NTMzNTQ= / bluray_compat=0 / constrained_intra=0 / fgo=0 / bframes=8 / b_pyramid=2 / b_adapt=2 / b_bias=0 / direct=3 / weightb=1 / open_gop=0 / weightp=2 / keyint=240 / keyint_min=1 / NTMzNTQ=uuDQuD2mJt9fsCf / scenecut=40 / intra_refresh=0 / rc_lookahead=72 / rc=crf / mbtree=0 / crf=16.5000 / qcomp=0.60 / qpmin=0:0:0 / qpmax=69:69:69 / qpstep=4 / vbv_maxrate=62500 / vbv_bufsize=78125 / crf_max=0.0 / nal_hrd=none / filler=0 / NTMzNTQ=LmsMAP37EqsCpk / ip_ratio=1.40 / pb_ratio=1.30 / aq=3:0.85 / aq-sensitivity=10.00 / aq-factor=1.00:1.00:1.00 / aq2=0 / aq3=0

  36. Language : English

  37. Default : Yes

  38. Forced : No


  39. Audio

  40. ID : 2

  41. Format : DTS ES

  42. Format/Info : Digital Theater Systems

  43. Commercial name : DTS-ES Matrix

  44. Codec ID : A_DTS

  45. Duration : 2 h 6 min

  46. Bit rate mode : Constant

  47. Bit rate : 1 509 kb/s

  48. Channel(s) : 6 channels

  49. Channel(s)_Original : 7 channels

  50. ChannelLayout_Original : C L R Ls Rs Cs LFE

  51. Sampling rate : 48.0 kHz

  52. Frame rate : 93.750 FPS (512 SPF)

  53. Bit depth : 24 bits

  54. Compression mode : Lossy

  55. Stream size : 1.34 GiB (11%)

  56. Language : English

  57. Default : Yes

  58. Forced : No


  59. Text #1

  60. ID : 3

  61. Format : PGS

  62. Muxing mode : zlib

  63. Codec ID : S_HDMV/PGS

  64. Codec ID/Info : Picture based subtitle format used on BDs/HD-DVDs

  65. Duration : 2 h 5 min

  66. Bit rate : 53.6 kb/s

  67. Count of elements : 4581

  68. Stream size : 48.3 MiB (0%)

  69. Title : chs&eng

  70. Language : Chinese

  71. Default : Yes

  72. Forced : No


  73. Text #2

  74. ID : 4

  75. Format : PGS

  76. Muxing mode : zlib

  77. Codec ID : S_HDMV/PGS

  78. Codec ID/Info : Picture based subtitle format used on BDs/HD-DVDs

  79. Duration : 2 h 5 min

  80. Bit rate : 53.9 kb/s

  81. Count of elements : 4581

  82. Stream size : 48.6 MiB (0%)

  83. Title : cht&eng

  84. Language : Chinese

  85. Default : No

  86. Forced : No


  87. Text #3

  88. ID : 5

  89. Format : PGS

  90. Muxing mode : zlib

  91. Codec ID : S_HDMV/PGS

  92. Codec ID/Info : Picture based subtitle format used on BDs/HD-DVDs

  93. Duration : 2 h 5 min

  94. Bit rate : 31.7 kb/s

  95. Count of elements : 4581

  96. Stream size : 28.5 MiB (0%)

  97. Title : chs

  98. Language : Chinese

  99. Default : No

  100. Forced : No


  101. Text #4

  102. ID : 6

  103. Format : PGS

  104. Muxing mode : zlib

  105. Codec ID : S_HDMV/PGS

  106. Codec ID/Info : Picture based subtitle format used on BDs/HD-DVDs

  107. Duration : 2 h 5 min

  108. Bit rate : 32.0 kb/s

  109. Count of elements : 4581

  110. Stream size : 28.8 MiB (0%)

  111. Title : cht

  112. Language : Chinese

  113. Default : No

  114. Forced : No


  115. Text #5

  116. ID : 7

  117. Format : PGS

  118. Muxing mode : zlib

  119. Codec ID : S_HDMV/PGS

  120. Codec ID/Info : Picture based subtitle format used on BDs/HD-DVDs

  121. Duration : 2 h 5 min

  122. Bit rate : 51.3 kb/s

  123. Count of elements : 4862

  124. Stream size : 46.1 MiB (0%)

  125. Title : eng

  126. Language : English

  127. Default : No

  128. Forced : No


  129. Menu

  130. 00:00:00.000 : 第 01 章

  131. 00:03:13.359 : 第 02 章

  132. 00:08:13.534 : 第 03 章

  133. 00:12:01.721 : 第 04 章

  134. 00:16:32.241 : 第 05 章

  135. 00:21:06.682 : 第 06 章

  136. 00:23:53.682 : 第 07 章

  137. 00:26:59.451 : 第 08 章

  138. 00:32:18.519 : 第 09 章

  139. 00:37:37.004 : 第 10 章

  140. 00:41:36.577 : 第 11 章

  141. 00:46:08.474 : 第 12 章

  142. 00:49:30.467 : 第 13 章

  143. 00:56:11.743 : 第 14 章

  144. 01:00:02.599 : 第 15 章

  145. 01:03:27.970 : 第 16 章

  146. 01:08:43.327 : 第 17 章

  147. 01:15:03.624 : 第 18 章

  148. 01:19:05.991 : 第 19 章

  149. 01:22:17.432 : 第 20 章

  150. 01:26:50.330 : 第 21 章

  151. 01:32:27.708 : 第 22 章

  152. 01:35:19.088 : 第 23 章

  153. 01:40:41.285 : 第 24 章

  154. 01:44:42.859 : 第 25 章

  155. 01:49:35.193 : 第 26 章

  156. 01:54:38.830 : 第 27 章

  157. 01:59:47.263 : 第 28 章



文件下载


除非特别注明,本文『隐藏人物[双语字幕]Hidden.Figures.2016.1080p.BluRay.x264.DTS-迅雷下载 12.61GB』来源于互联网机器人自动抓取,非本站原创。 浮游电影网不对本文拥有版权,如有侵犯,请联系邮箱:fuyouu#yandex.com[#换成@]投诉。我们会在15个工作日内删除。 但烦请转载时请标明出处:“本文转载于『浮游电影网』,原文地址:https://www.fuyouu.com/12945.html

评论吧骚年!

发表你的见解   

昵称*

E-mail*(建议输入,以便收到博主回复的提示邮件)

验证码*

您可以使用eMule或eMule Mod(Windows)、aMule(Win、Linux、Mac)等软件下载eD2k链接。。
eMule收藏集(.emulecollection)文件是您选中的所有链接的列表文件。eMule可以直接下载它们。
按住SHIFT键选择可以选中多个选择框。
可用文件名和大小选择器来选择文件。
文件名选择器帮您根据文件名称或后缀来选择文件。不分大小写。
符号使用:
和:空格( )、+
不包含:-
或:|
转义:一对英文引号("");
匹配开头:^
匹配结尾:$
例如:
选中所有名称中包含有“eMule”或“0.49c”字眼,但不包含有“exe”字眼的:emule|0.49c -exe
选中所有名称的开头是“eMule”,结尾是“0.49c”的:^emule 0.49c$
选中所有名称中带有“eMule 0.49c”的(必须是“eMule 0.49c”,中间没有别的字符,不能是“eMule fake 0.49c”),需要转义:"emule 0.49c"
大小选择器帮您根据文件大小选择文件。