当前位置: 首页 >> 欧美电影 >> 归顺[双语字幕]Submission.2017.1080p.BluRay.x264.DTS-迅雷下载 11.49GB >> 正文

归顺[双语字幕]Submission.2017.1080p.BluRay.x264.DTS-迅雷下载 11.49GB

2021年07月08日 16:16:26     电影发布:来源于网络     电影分类:欧美电影     评论(0)    

归顺[双语字幕]Submission.2017.1080p.BluRay.x264.DTS 迅雷下载 11.49GB 剧情片 欧美电影  第1张

◎译 名 归顺 / Blue Angel

◎片 名 Submission

◎年 代 2017

◎产 地 美国

◎类 别 剧情

◎语 言 英语

◎上映日期 2017-10-13(伍德斯托克电影节) / 2018-03-09(美国部分上映)

◎IMDb评分 5.6/10 from 1121 users

◎IMDb链接 https://www.imdb.com/title/tt2707810

◎豆瓣评分 6.5/10 from 309 users

◎豆瓣链接 https://movie.douban.com/subject/26699822/

◎片 长 106分钟

◎导 演 Richard Levine

◎编 剧 Richard Levine

◎主 演 斯坦利·图齐 Stanley Tucci

艾狄森·蒂姆林 Addison Timlin

凯拉·塞吉维克 Kyra Sedgwick

詹妮安·加罗法洛 Janeane Garofalo

里特奇·科斯特 Ritchie Coster

Alison Bartlett

亨利·斯特拉姆 Henry Stram

蔻碧·米纳菲 Colby Minifie

◎标 签 美国 | 人性 | 剧情 | 师生恋 | 美国电影 | 社会家庭 | 2017 | 2018

◎简 介

斯坦利·图齐饰演一位已婚大学教授,爱迪生·蒂姆林饰演其门下写作天赋非常厉害的女学生,在一对一的写作教学中两人逐渐对彼此心生爱意,一段不可避免的“师生恋”就此展开。电影由理查德·莱文执导,詹妮安·加罗法洛、里奇·科斯特、科尔·比米尼菲等人参演。

  1. General

  2. Unique ID : 292899763406698249002639713702018961841 (0xDC5A7148001D89A28C178721813251B1)

  3. Complete name : Submission.2017.1080p.BluRay.x264.DTS-PTH.mkv

  4. Format : Matroska

  5. Format version : Version 4

  6. File size : 11.5 GiB

  7. Duration : 1 h 46 min

  8. Overall bit rate : 15.5 Mb/s

  9. Movie name : Submission 2017

  10. Encoded date : UTC 2021-07-06 09:14:28

  11. Writing application : mkvmerge v58.0.0 ('Supper's Ready') 64-bit

  12. Writing library : libebml v1.4.2 + libmatroska v1.6.4

  13. Cover : Yes

  14. Attachments : cover.jpg


  15. Video

  16. ID : 1

  17. Format : AVC

  18. Format/Info : Advanced Video Codec

  19. Format profile : High@L4.1

  20. Format settings : CABAC / 4 Ref Frames

  21. Format settings, CABAC : Yes

  22. Format settings, Reference frames : 4 frames

  23. Codec ID : V_MPEG4/ISO/AVC

  24. Duration : 1 h 46 min

  25. Bit rate : 13.8 Mb/s

  26. Width : 1 920 pixels

  27. Height : 804 pixels

  28. Display aspect ratio : 2.40:1

  29. Frame rate mode : Constant

  30. Frame rate : 23.976 (24000/1001/53354) FPS

  31. Color space : YUV

  32. Chroma subsampling : 4:2:0

  33. Bit depth : 8 bits

  34. Scan type : Progressive

  35. Bits/(Pixel*Frame) : 0.374

  36. Stream size : 10.3 GiB (90%)

  37. Writing library : x264 core 163 r3059+79M f2a8266 t_mod_test_xavc [(8 & 10)-bit@all X86_64]

  38. Encoding settings : cabac=1 / ref=4 / deblock=1:-3:-3 / analyse=0x3:0x133 / me=umh / subme=11 / psy=1 / fade_compensate=0.00 / psy_rd=1.00:0.00 / mixed_ref=1 / me_range=48 / chroma_me=1 / trellis=2 / 8x8dct=1 / cqm=0 / deadzone=21,11 / fast_pskip=0 / chroma_qp_offset=-3 / threads=25 / lookahead_threads=6 / sliced_threads=0 / nr=0 / decimate=0 / interlaced=0 / NTMzNTQ= / bluray_compat=0 / constrained_intra=0 / fgo=0 / bframes=11 / b_pyramid=2 / b_adapt=2 / b_bias=0 / direct=3 / weightb=1 / open_gop=0 / weightp=2 / keyint=240 / keyint_min=1 / NTMzNTQ=uuDQuD2mJt9fsCf / scenecut=40 / intra_refresh=0 / rc_lookahead=72 / rc=crf / mbtree=0 / crf=17.0000 / qcomp=0.65 / qpmin=0:0:0 / qpmax=69:69:69 / qpstep=4 / vbv_maxrate=62500 / vbv_bufsize=78125 / crf_max=0.0 / nal_hrd=none / filler=0 / NTMzNTQ=LmsMAP37EqsCpk / ip_ratio=1.40 / pb_ratio=1.30 / aq=3:0.75 / aq-sensitivity=10.00 / aq-factor=1.00:1.00:1.00 / aq2=0 / aq3=0

  39. Language : English

  40. Default : Yes

  41. Forced : No


  42. Audio

  43. ID : 2

  44. ID in the original source medium : 4352 (0x1100)

  45. Format : DTS

  46. Format/Info : Digital Theater Systems

  47. Codec ID : A_DTS

  48. Duration : 1 h 46 min

  49. Bit rate mode : Constant

  50. Bit rate : 1 509 kb/s

  51. Channel(s) : 6 channels

  52. Channel layout : C L R Ls Rs LFE

  53. Sampling rate : 48.0 kHz

  54. Frame rate : 93.750 FPS (512 SPF)

  55. Bit depth : 24 bits

  56. Compression mode : Lossy

  57. Stream size : 1.12 GiB (10%)

  58. Language : English

  59. Default : Yes

  60. Forced : No

  61. Original source medium : Blu-ray


  62. Text #1

  63. ID : 3

  64. ID in the original source medium : 4612 (0x1204)

  65. Format : PGS

  66. Muxing mode : zlib

  67. Codec ID : S_HDMV/PGS

  68. Codec ID/Info : Picture based subtitle format used on BDs/HD-DVDs

  69. Duration : 1 h 40 min

  70. Bit rate : 69.1 kb/s

  71. Count of elements : 3484

  72. Stream size : 49.9 MiB (0%)

  73. Title : chs&eng

  74. Language : Chinese

  75. Default : Yes

  76. Forced : No

  77. Original source medium : Blu-ray


  78. Text #2

  79. ID : 4

  80. ID in the original source medium : 4613 (0x1205)

  81. Format : PGS

  82. Muxing mode : zlib

  83. Codec ID : S_HDMV/PGS

  84. Codec ID/Info : Picture based subtitle format used on BDs/HD-DVDs

  85. Duration : 1 h 40 min

  86. Bit rate : 69.6 kb/s

  87. Count of elements : 3484

  88. Stream size : 50.2 MiB (0%)

  89. Title : cht&eng

  90. Language : Chinese

  91. Default : Yes

  92. Forced : No

  93. Original source medium : Blu-ray


  94. Text #3

  95. ID : 5

  96. ID in the original source medium : 4614 (0x1206)

  97. Format : PGS

  98. Muxing mode : zlib

  99. Codec ID : S_HDMV/PGS

  100. Codec ID/Info : Picture based subtitle format used on BDs/HD-DVDs

  101. Duration : 1 h 40 min

  102. Bit rate : 38.5 kb/s

  103. Count of elements : 3484

  104. Stream size : 27.8 MiB (0%)

  105. Title : chs

  106. Language : Chinese

  107. Default : Yes

  108. Forced : No

  109. Original source medium : Blu-ray


  110. Text #4

  111. ID : 6

  112. ID in the original source medium : 4615 (0x1207)

  113. Format : PGS

  114. Muxing mode : zlib

  115. Codec ID : S_HDMV/PGS

  116. Codec ID/Info : Picture based subtitle format used on BDs/HD-DVDs

  117. Duration : 1 h 40 min

  118. Bit rate : 39.0 kb/s

  119. Count of elements : 3484

  120. Stream size : 28.1 MiB (0%)

  121. Title : cht

  122. Language : Chinese

  123. Default : Yes

  124. Forced : No

  125. Original source medium : Blu-ray


  126. Text #5

  127. ID : 7

  128. ID in the original source medium : 4608 (0x1200)

  129. Format : PGS

  130. Muxing mode : zlib

  131. Codec ID : S_HDMV/PGS

  132. Codec ID/Info : Picture based subtitle format used on BDs/HD-DVDs

  133. Duration : 1 h 45 min

  134. Bit rate : 52.6 kb/s

  135. Count of elements : 3712

  136. Stream size : 39.7 MiB (0%)

  137. Language : English

  138. Default : Yes

  139. Forced : No

  140. Original source medium : Blu-ray


  141. Menu

  142. 00:00:00.000 : Chapter 01

  143. 00:07:11.764 : Chapter 02

  144. 00:13:45.282 : Chapter 03

  145. 00:23:23.985 : Chapter 04

  146. 00:30:48.012 : Chapter 05

  147. 00:41:41.207 : Chapter 06

  148. 00:53:24.576 : Chapter 07

  149. 01:07:18.117 : Chapter 08

  150. 01:15:43.163 : Chapter 09

  151. 01:20:38.375 : Chapter 10

  152. 01:26:36.399 : Chapter 11

  153. 01:40:10.212 : Chapter 12



文件下载


除非特别注明,本文『归顺[双语字幕]Submission.2017.1080p.BluRay.x264.DTS-迅雷下载 11.49GB』来源于互联网机器人自动抓取,非本站原创。 浮游电影网不对本文拥有版权,如有侵犯,请联系邮箱:fuyouu#yandex.com[#换成@]投诉。我们会在15个工作日内删除。 但烦请转载时请标明出处:“本文转载于『浮游电影网』,原文地址:https://www.fuyouu.com/12939.html

评论吧骚年!

发表你的见解   

昵称*

E-mail*(建议输入,以便收到博主回复的提示邮件)

验证码*

您可以使用eMule或eMule Mod(Windows)、aMule(Win、Linux、Mac)等软件下载eD2k链接。。
eMule收藏集(.emulecollection)文件是您选中的所有链接的列表文件。eMule可以直接下载它们。
按住SHIFT键选择可以选中多个选择框。
可用文件名和大小选择器来选择文件。
文件名选择器帮您根据文件名称或后缀来选择文件。不分大小写。
符号使用:
和:空格( )、+
不包含:-
或:|
转义:一对英文引号("");
匹配开头:^
匹配结尾:$
例如:
选中所有名称中包含有“eMule”或“0.49c”字眼,但不包含有“exe”字眼的:emule|0.49c -exe
选中所有名称的开头是“eMule”,结尾是“0.49c”的:^emule 0.49c$
选中所有名称中带有“eMule 0.49c”的(必须是“eMule 0.49c”,中间没有别的字符,不能是“eMule fake 0.49c”),需要转义:"emule 0.49c"
大小选择器帮您根据文件大小选择文件。