当前位置: 首页 >> 日韩电影 >> 单身骑士[中文字幕]Single.Rider.2017.1080p.BluRay.x264.DTS-迅雷下载 9.65GB >> 正文

单身骑士[中文字幕]Single.Rider.2017.1080p.BluRay.x264.DTS-迅雷下载 9.65GB

2021年07月07日 18:37:28     电影发布:来源于网络     电影分类:日韩电影     评论(0)    

单身骑士[中文字幕]Single.Rider.2017.1080p.BluRay.x264.DTS 迅雷下载 9.65GB 剧情片 日韩电影  第1张

◎译 名 单身骑士 / Single Rider / 单身骑手

◎片 名 ?????

◎年 代 2017

◎产 地 韩国 / 澳大利亚

◎类 别 剧情

◎语 言 韩语

◎上映日期 2017-02-22(韩国)

◎IMDb评分 6.6/10 from 701 users

◎IMDb链接 https://www.imdb.com/title/tt5966750

◎豆瓣评分 7.1/10 from 3735 users

◎豆瓣链接 https://movie.douban.com/subject/26715549/

◎片 长 97分钟

◎导 演 李祖英 Zoo-Young Lee

◎编 剧 李祖英 Zoo-Young Lee

◎主 演 李秉宪 Byeng-hun Lee

孔晓振 Hyo-jin Kong

安昭熙 So-hee Ahn

本尼迪克·哈迪 Benedict Hardie

杰克·坎贝尔 Jack Campbell

凯茨·托马斯 Keith Thomas

◎标 签 韩国 | 文艺 | 剧情 | 悬疑 | 2017 | 人性 | 家庭 | 温情

◎简 介

电影界相关人士透露,李秉宪与孔晓振将携手出演《Single Knight》

李秉宪将饰演一名精英证券投资银行的分行行长,孔晓振饰演其妻子

该剧是一部讲述男主角与儿子、妻子在澳洲旅行时,一瞬间失去了全部的不可思议的悬疑剧。

◎获奖情况

第38届韩国电影青龙奖(2017)

最佳新人导演(提名) 李祖英

最佳剧本(提名)

最佳配乐(提名)

第53届百想艺术大赏(2017)

电影类 最佳新人导演(提名) 李祖英

第54届韩国电影大钟奖(2017)

最佳音乐(提名)

  1. General

  2. Unique ID : 266687780621168094756496125313511563865 (0xC8A232C083E149BAF6C4FC6B95FFA259)

  3. Complete name : Single.Rider.2017.1080p.BluRay.x264.DTS-PTH.mkv

  4. Format : Matroska

  5. Format version : Version 4

  6. File size : 9.65 GiB

  7. Duration : 1 h 37 min

  8. Overall bit rate : 14.2 Mb/s

  9. Movie name : A SINGLE RIDER Blu-ray Disc?

  10. Encoded date : UTC 2021-07-06 04:49:17

  11. Writing application : mkvmerge v58.0.0 ('Supper's Ready') 64-bit

  12. Writing library : libebml v1.4.2 + libmatroska v1.6.4

  13. Cover : Yes

  14. Attachments : cover.jpg


  15. Video

  16. ID : 1

  17. Format : AVC

  18. Format/Info : Advanced Video Codec

  19. Format profile : High@L4.1

  20. Format settings : CABAC / 4 Ref Frames

  21. Format settings, CABAC : Yes

  22. Format settings, Reference frames : 4 frames

  23. Codec ID : V_MPEG4/ISO/AVC

  24. Duration : 1 h 37 min

  25. Bit rate : 12.6 Mb/s

  26. Width : 1 920 pixels

  27. Height : 1 036 pixels

  28. Display aspect ratio : 1.85:1

  29. Frame rate mode : Constant

  30. Frame rate : 23.976 (24000/1001/53354) FPS

  31. Color space : YUV

  32. Chroma subsampling : 4:2:0

  33. Bit depth : 8 bits

  34. Scan type : Progressive

  35. Bits/(Pixel*Frame) : 0.265

  36. Stream size : 8.60 GiB (89%)

  37. Writing library : x264 core 163 r3059+79M f2a8266 t_mod_test_xavc [(8 & 10)-bit@all X86_64]

  38. Encoding settings : cabac=1 / ref=4 / deblock=1:-3:-3 / analyse=0x3:0x133 / me=umh / subme=11 / psy=1 / fade_compensate=0.00 / psy_rd=1.00:0.00 / mixed_ref=1 / me_range=48 / chroma_me=1 / trellis=2 / 8x8dct=1 / cqm=0 / deadzone=21,11 / fast_pskip=0 / chroma_qp_offset=-3 / threads=24 / lookahead_threads=6 / sliced_threads=0 / nr=0 / decimate=0 / interlaced=0 / NTMzNTQ= / bluray_compat=0 / constrained_intra=0 / fgo=0 / bframes=11 / b_pyramid=2 / b_adapt=2 / b_bias=0 / direct=3 / weightb=1 / open_gop=0 / weightp=2 / keyint=240 / keyint_min=1 / NTMzNTQ=uuDQuD2mJt9fsCf / scenecut=40 / intra_refresh=0 / rc_lookahead=72 / rc=crf / mbtree=0 / crf=18.5000 / qcomp=0.65 / qpmin=0:0:0 / qpmax=69:69:69 / qpstep=4 / vbv_maxrate=62500 / vbv_bufsize=78125 / crf_max=0.0 / nal_hrd=none / filler=0 / NTMzNTQ=LmsMAP37EqsCpk / ip_ratio=1.40 / pb_ratio=1.30 / aq=3:0.80 / aq-sensitivity=10.00 / aq-factor=1.00:1.00:1.00 / aq2=0 / aq3=0

  39. Default : Yes

  40. Forced : No


  41. Audio

  42. ID : 2

  43. ID in the original source medium : 4352 (0x1100)

  44. Format : DTS

  45. Format/Info : Digital Theater Systems

  46. Codec ID : A_DTS

  47. Duration : 1 h 37 min

  48. Bit rate mode : Constant

  49. Bit rate : 1 509 kb/s

  50. Channel(s) : 6 channels

  51. Channel layout : C L R Ls Rs LFE

  52. Sampling rate : 48.0 kHz

  53. Frame rate : 93.750 FPS (512 SPF)

  54. Bit depth : 24 bits

  55. Compression mode : Lossy

  56. Stream size : 1.03 GiB (11%)

  57. Language : Korean

  58. Default : Yes

  59. Forced : No

  60. Original source medium : Blu-ray


  61. Text #1

  62. ID : 3

  63. ID in the original source medium : 4610 (0x1202)

  64. Format : PGS

  65. Muxing mode : zlib

  66. Codec ID : S_HDMV/PGS

  67. Codec ID/Info : Picture based subtitle format used on BDs/HD-DVDs

  68. Duration : 1 h 31 min

  69. Bit rate : 11.7 kb/s

  70. Count of elements : 1142

  71. Stream size : 7.62 MiB (0%)

  72. Title : chs

  73. Language : Chinese

  74. Default : Yes

  75. Forced : No

  76. Original source medium : Blu-ray


  77. Text #2

  78. ID : 4

  79. ID in the original source medium : 4611 (0x1203)

  80. Format : PGS

  81. Muxing mode : zlib

  82. Codec ID : S_HDMV/PGS

  83. Codec ID/Info : Picture based subtitle format used on BDs/HD-DVDs

  84. Duration : 1 h 31 min

  85. Bit rate : 11.8 kb/s

  86. Count of elements : 1142

  87. Stream size : 7.71 MiB (0%)

  88. Title : cht

  89. Language : Chinese

  90. Default : No

  91. Forced : No

  92. Original source medium : Blu-ray


  93. Text #3

  94. ID : 5

  95. ID in the original source medium : 4609 (0x1201)

  96. Format : PGS

  97. Muxing mode : zlib

  98. Codec ID : S_HDMV/PGS

  99. Codec ID/Info : Picture based subtitle format used on BDs/HD-DVDs

  100. Duration : 1 h 31 min

  101. Bit rate : 12.5 kb/s

  102. Count of elements : 723

  103. Stream size : 8.13 MiB (0%)

  104. Title : eng

  105. Language : English

  106. Default : No

  107. Forced : No

  108. Original source medium : Blu-ray


  109. Text #4

  110. ID : 6

  111. ID in the original source medium : 4608 (0x1200)

  112. Format : PGS

  113. Muxing mode : zlib

  114. Codec ID : S_HDMV/PGS

  115. Codec ID/Info : Picture based subtitle format used on BDs/HD-DVDs

  116. Duration : 1 h 30 min

  117. Bit rate : 10.8 kb/s

  118. Count of elements : 782

  119. Stream size : 7.01 MiB (0%)

  120. Title : kor

  121. Language : Korean

  122. Default : No

  123. Forced : No

  124. Original source medium : Blu-ray


  125. Menu

  126. 00:00:00.000 : Chapter 01

  127. 00:05:47.847 : Chapter 02

  128. 00:14:13.686 : Chapter 03

  129. 00:22:29.765 : Chapter 04

  130. 00:29:35.982 : Chapter 05

  131. 00:36:02.577 : Chapter 06

  132. 00:40:38.269 : Chapter 07

  133. 00:46:01.925 : Chapter 08

  134. 00:53:17.736 : Chapter 09

  135. 01:00:06.853 : Chapter 10

  136. 01:14:13.991 : Chapter 11

  137. 01:25:13.233 : Chapter 12



文件下载


除非特别注明,本文『单身骑士[中文字幕]Single.Rider.2017.1080p.BluRay.x264.DTS-迅雷下载 9.65GB』来源于互联网机器人自动抓取,非本站原创。 浮游电影网不对本文拥有版权,如有侵犯,请联系邮箱:fuyouu#yandex.com[#换成@]投诉。我们会在15个工作日内删除。 但烦请转载时请标明出处:“本文转载于『浮游电影网』,原文地址:https://www.fuyouu.com/12926.html

评论吧骚年!

发表你的见解   

昵称*

E-mail*(建议输入,以便收到博主回复的提示邮件)

验证码*

您可以使用eMule或eMule Mod(Windows)、aMule(Win、Linux、Mac)等软件下载eD2k链接。。
eMule收藏集(.emulecollection)文件是您选中的所有链接的列表文件。eMule可以直接下载它们。
按住SHIFT键选择可以选中多个选择框。
可用文件名和大小选择器来选择文件。
文件名选择器帮您根据文件名称或后缀来选择文件。不分大小写。
符号使用:
和:空格( )、+
不包含:-
或:|
转义:一对英文引号("");
匹配开头:^
匹配结尾:$
例如:
选中所有名称中包含有“eMule”或“0.49c”字眼,但不包含有“exe”字眼的:emule|0.49c -exe
选中所有名称的开头是“eMule”,结尾是“0.49c”的:^emule 0.49c$
选中所有名称中带有“eMule 0.49c”的(必须是“eMule 0.49c”,中间没有别的字符,不能是“eMule fake 0.49c”),需要转义:"emule 0.49c"
大小选择器帮您根据文件大小选择文件。