当前位置: 首页 >> 欧美电影 >> 末世家园[双语字幕]迅雷下载.The.Domestics.2018.1080p.BluRay.x264.DD.5.1 7.72GB >> 正文

末世家园[双语字幕]迅雷下载.The.Domestics.2018.1080p.BluRay.x264.DD.5.1 7.72GB

2021年07月07日 18:22:26     电影发布:来源于网络     电影分类:欧美电影     评论(0)    

末世家园[双语字幕]迅雷下载.The.Domestics.2018.1080p.BluRay.x264.DD.5.1 7.72GB 恐怖片 惊悚片 欧美电影  第1张

◎译 名 末世家园/末世国货

◎片 名 The Domestics

◎年 代 2018

◎产 地 美国

◎类 别 惊悚 / 恐怖

◎上映日期 2018-06-29(美国)

◎IMDb评分 5.7/10 from 9118 users

◎IMDb链接 https://www.imdb.com/title/tt5591666/

◎豆瓣评分 5.3/10 from 974 users

◎豆瓣链接 https://movie.douban.com/subject/26978616/

◎片 长 95分钟

◎导 演 迈克·P·纳尔逊 Mike P. Nelson

◎编 剧 迈克·P·纳尔逊 Mike P. Nelson

◎主 演 泰勒·霍奇林 Tyler Hoechlin

凯特·波茨沃斯 Kate Bosworth

水野索诺娅 Sonoya Mizuno

兰斯·莱迪克 Lance Reddick

大卫·达斯马齐连 David Dastmalchian

丹娜·格瑞尔 Dana Gourrier

劳拉·凯洛蒂 Laura Cayouette

兰斯·E·尼克尔斯 Lance E. Nichols

杰夫·蔡斯 Jeff Chase

布拉德·利兰 Brad Leland

戴夫·戴维斯 Dave Davis

大卫·詹森 David Jensen

托马斯·弗兰西斯·墨菲 Thomas Francis Murphy

迈克·P·纳尔逊 Mike P. Nelson

吉姆·格里森 Jim Gleason

戴恩·罗兹 Dane Rhodes

埃迪·马休斯 Eddie Matthews

阿尔·维森特 Al Vicente

Lee Perkins Lee Perkins

索菲娅·罗萨莱斯 Sophia Rosales

马蒂·费拉罗 Matty Ferraro

尼古拉斯·帕森斯 Nicholas X. Parsons

◎标 签 暴力 | 末世 | 美国 | 惊悚 | 犯罪 | 恐怖 | 美国电影 | 2018

◎简 介

一对夫妇在被暴徒控制的中西部地带,只有通过与之斗争才能回家的故事,影片将于6月29日北美上映。

  1. General

  2. Unique ID : 226452431954102944294456849093596659741 (0xAA5D26E75F7DB0F80E80EA9C24A1C01D)

  3. Complete name : The.Domestics.2018.1080p.BluRay.x264.DD.5.1-PTH.mkv

  4. Format : Matroska

  5. Format version : Version 4

  6. File size : 7.72 GiB

  7. Duration : 1 h 35 min

  8. Overall bit rate : 11.6 Mb/s

  9. Movie name : The Domestics 2018

  10. Encoded date : UTC 2021-07-05 01:13:29

  11. Writing application : mkvmerge v58.0.0 ('Supper's Ready') 64-bit

  12. Writing library : libebml v1.4.2 + libmatroska v1.6.4


  13. Video

  14. ID : 1

  15. Format : AVC

  16. Format/Info : Advanced Video Codec

  17. Format profile : High@L4.1

  18. Format settings : CABAC / 4 Ref Frames

  19. Format settings, CABAC : Yes

  20. Format settings, Reference frames : 4 frames

  21. Codec ID : V_MPEG4/ISO/AVC

  22. Duration : 1 h 35 min

  23. Bit rate : 11.1 Mb/s

  24. Width : 1 920 pixels

  25. Height : 804 pixels

  26. Display aspect ratio : 2.40:1

  27. Frame rate mode : Constant

  28. Frame rate : 23.976 (24000/1001/53354) FPS

  29. Color space : YUV

  30. Chroma subsampling : 4:2:0

  31. Bit depth : 8 bits

  32. Scan type : Progressive

  33. Bits/(Pixel*Frame) : 0.300

  34. Stream size : 7.38 GiB (96%)

  35. Writing library : x264 core 163 r3059+79M f2a8266 t_mod_test_xavc [(8 & 10)-bit@all X86_64]

  36. Encoding settings : cabac=1 / ref=4 / deblock=1:-3:-3 / analyse=0x3:0x133 / me=umh / subme=11 / psy=1 / fade_compensate=0.00 / psy_rd=1.00:0.00 / mixed_ref=1 / me_range=48 / chroma_me=1 / trellis=2 / 8x8dct=1 / cqm=0 / deadzone=21,11 / fast_pskip=0 / chroma_qp_offset=-3 / threads=25 / lookahead_threads=6 / sliced_threads=0 / nr=0 / decimate=0 / interlaced=0 / NTMzNTQ= / bluray_compat=0 / constrained_intra=0 / fgo=0 / bframes=11 / b_pyramid=2 / b_adapt=2 / b_bias=0 / direct=3 / weightb=1 / open_gop=0 / weightp=2 / keyint=240 / keyint_min=1 / NTMzNTQ=uuDQuD2mJt9fsCf / scenecut=40 / intra_refresh=0 / rc_lookahead=72 / rc=crf / mbtree=0 / crf=18.5000 / qcomp=0.60 / qpmin=0:0:0 / qpmax=69:69:69 / qpstep=4 / vbv_maxrate=62500 / vbv_bufsize=78125 / crf_max=0.0 / nal_hrd=none / filler=0 / NTMzNTQ=LmsMAP37EqsCpk / ip_ratio=1.40 / pb_ratio=1.30 / aq=3:0.75 / aq-sensitivity=10.00 / aq-factor=1.00:1.00:1.00 / aq2=0 / aq3=0

  37. Language : English

  38. Default : Yes

  39. Forced : No


  40. Audio

  41. ID : 2

  42. ID in the original source medium : 4352 (0x1100)

  43. Format : AC-3

  44. Format/Info : Audio Coding 3

  45. Commercial name : Dolby Digital

  46. Codec ID : A_AC3

  47. Duration : 1 h 35 min

  48. Bit rate mode : Constant

  49. Bit rate : 448 kb/s

  50. Channel(s) : 6 channels

  51. Channel layout : L R C LFE Ls Rs

  52. Sampling rate : 48.0 kHz

  53. Frame rate : 31.250 FPS (1536 SPF)

  54. Compression mode : Lossy

  55. Stream size : 305 MiB (4%)

  56. Language : English

  57. Service kind : Complete Main

  58. Default : Yes

  59. Forced : No

  60. Original source medium : Blu-ray


  61. Text #1

  62. ID : 3

  63. ID in the original source medium : 4610 (0x1202)

  64. Format : PGS

  65. Muxing mode : zlib

  66. Codec ID : S_HDMV/PGS

  67. Codec ID/Info : Picture based subtitle format used on BDs/HD-DVDs

  68. Duration : 1 h 31 min

  69. Bit rate : 34.9 kb/s

  70. Count of elements : 1377

  71. Stream size : 22.9 MiB (0%)

  72. Title : chs&eng

  73. Language : Chinese

  74. Default : Yes

  75. Forced : No

  76. Original source medium : Blu-ray


  77. Text #2

  78. ID : 4

  79. ID in the original source medium : 4611 (0x1203)

  80. Format : PGS

  81. Muxing mode : zlib

  82. Codec ID : S_HDMV/PGS

  83. Codec ID/Info : Picture based subtitle format used on BDs/HD-DVDs

  84. Duration : 1 h 31 min

  85. Bit rate : 35.1 kb/s

  86. Count of elements : 1377

  87. Stream size : 23.1 MiB (0%)

  88. Title : cht&eng

  89. Language : Chinese

  90. Default : Yes

  91. Forced : No

  92. Original source medium : Blu-ray


  93. Text #3

  94. ID : 5

  95. ID in the original source medium : 4612 (0x1204)

  96. Format : PGS

  97. Muxing mode : zlib

  98. Codec ID : S_HDMV/PGS

  99. Codec ID/Info : Picture based subtitle format used on BDs/HD-DVDs

  100. Duration : 1 h 31 min

  101. Bit rate : 20.4 kb/s

  102. Count of elements : 1376

  103. Stream size : 13.4 MiB (0%)

  104. Title : chs

  105. Language : Chinese

  106. Default : Yes

  107. Forced : No

  108. Original source medium : Blu-ray


  109. Text #4

  110. ID : 6

  111. ID in the original source medium : 4613 (0x1205)

  112. Format : PGS

  113. Muxing mode : zlib

  114. Codec ID : S_HDMV/PGS

  115. Codec ID/Info : Picture based subtitle format used on BDs/HD-DVDs

  116. Duration : 1 h 31 min

  117. Bit rate : 20.6 kb/s

  118. Count of elements : 1376

  119. Stream size : 13.5 MiB (0%)

  120. Title : cht

  121. Language : Chinese

  122. Default : Yes

  123. Forced : No

  124. Original source medium : Blu-ray


  125. Text #5

  126. ID : 7

  127. ID in the original source medium : 4608 (0x1200)

  128. Format : PGS

  129. Muxing mode : zlib

  130. Codec ID : S_HDMV/PGS

  131. Codec ID/Info : Picture based subtitle format used on BDs/HD-DVDs

  132. Duration : 1 h 31 min

  133. Bit rate : 11.4 kb/s

  134. Count of elements : 1541

  135. Stream size : 7.51 MiB (0%)

  136. Language : English

  137. Default : Yes

  138. Forced : No

  139. Original source medium : Blu-ray


  140. Menu

  141. 00:00:00.000 : Chapter 01

  142. 00:09:11.926 : Chapter 02

  143. 00:12:26.203 : Chapter 03

  144. 00:15:16.957 : Chapter 04

  145. 00:19:15.946 : Chapter 05

  146. 00:23:04.966 : Chapter 06

  147. 00:28:34.963 : Chapter 07

  148. 00:39:53.974 : Chapter 08

  149. 00:43:20.973 : Chapter 09

  150. 00:51:49.314 : Chapter 10

  151. 00:56:17.916 : Chapter 11

  152. 01:03:11.704 : Chapter 12

  153. 01:13:56.974 : Chapter 13

  154. 01:18:42.134 : Chapter 14

  155. 01:22:09.633 : Chapter 15

  156. 01:31:24.937 : Chapter 16



文件下载


除非特别注明,本文『末世家园[双语字幕]迅雷下载.The.Domestics.2018.1080p.BluRay.x264.DD.5.1 7.72GB』来源于互联网机器人自动抓取,非本站原创。 浮游电影网不对本文拥有版权,如有侵犯,请联系邮箱:fuyouu#yandex.com[#换成@]投诉。我们会在15个工作日内删除。 但烦请转载时请标明出处:“本文转载于『浮游电影网』,原文地址:https://www.fuyouu.com/12916.html

评论吧骚年!

发表你的见解   

昵称*

E-mail*(建议输入,以便收到博主回复的提示邮件)

验证码*

您可以使用eMule或eMule Mod(Windows)、aMule(Win、Linux、Mac)等软件下载eD2k链接。。
eMule收藏集(.emulecollection)文件是您选中的所有链接的列表文件。eMule可以直接下载它们。
按住SHIFT键选择可以选中多个选择框。
可用文件名和大小选择器来选择文件。
文件名选择器帮您根据文件名称或后缀来选择文件。不分大小写。
符号使用:
和:空格( )、+
不包含:-
或:|
转义:一对英文引号("");
匹配开头:^
匹配结尾:$
例如:
选中所有名称中包含有“eMule”或“0.49c”字眼,但不包含有“exe”字眼的:emule|0.49c -exe
选中所有名称的开头是“eMule”,结尾是“0.49c”的:^emule 0.49c$
选中所有名称中带有“eMule 0.49c”的(必须是“eMule 0.49c”,中间没有别的字符,不能是“eMule fake 0.49c”),需要转义:"emule 0.49c"
大小选择器帮您根据文件大小选择文件。