当前位置: 首页 >> 港台电影 >> 警察学校4:全民警察[双语字幕]迅雷下载.Police.Academy.4.Citizens.on.Patrol.1987.1080p 8.46GB >> 正文

警察学校4:全民警察[双语字幕]迅雷下载.Police.Academy.4.Citizens.on.Patrol.1987.1080p 8.46GB

2021年07月06日 12:08:04     电影发布:来源于网络     电影分类:港台电影     评论(0)    

警察学校4:全民警察[双语字幕]迅雷下载.Police.Academy.4.Citizens.on.Patrol.1987.1080p 8.46GB 犯罪片 动作片 喜剧片 港台电影 第1张

◎译 名 警察学校4:全民警察 / 全民警察 / 学警出更第四集:翻天覆地 / 金牌警校军第四集

◎片 名 Police Academy 4: Citizens on Patrol

◎年 代 1987

◎产 地 美国

◎类 别 喜剧 / 动作 / 犯罪

◎语 言 英语

◎上映日期 1987-04-03

◎IMDb评分 5.0/10 from 39869 users

◎IMDb链接 https://www.imdb.com/title/tt0093756

◎豆瓣评分 7.0/10 from 1605 users

◎豆瓣链接 https://movie.douban.com/subject/1301398/

◎片 长 88分钟

◎导 演 Jim Drake

◎编 剧 尼尔·伊斯雷尔 Neal Israel / 帕特·普罗夫 Pat Proft

◎主 演 斯蒂夫·古根伯格 Steve Guttenberg

布巴·史密斯 Bubba Smith

迈克尔·温斯洛 Michael Winslow

大卫·格拉夫 David Graf

蒂姆·卡祖林斯基 Tim Kazurinsky

莎朗·斯通 Sharon Stone

莱斯利·伊斯特布鲁克 Leslie Easterbrook

马里昂·拉姆塞 Marion Ramsey

兰斯·金赛 Lance Kinsey

G.W.拜利 G.W. Bailey

博卡·格德斯维特 Bobcat Goldthwait

乔治·盖恩斯 George Gaynes

德里克·麦克加特 Derek McGrath

斯科特·汤姆森 Scott Thomson

比莉·伯德 Billie Bird

乔治·R·罗伯逊 George R. Robertson

Brian Tochi

布赖恩·巴克尔 Brian Backer

大卫·斯佩德 David Spade

Tab Thacker

科琳·波赫雷 Corinne Bohrer

Michael McManus

◎标 签 喜剧 | 美国 | 警察学校 | 美国电影 | 搞笑 | 1987 | 经典 | 电影

◎简 介

拉萨雷校长面对警察工作难以及时到位的现状,再出奇思异想,推出“全民警察”计划,由警校负责培训社会志愿者,以加强警民联系。于是乎,马哈尼(斯蒂夫?古根伯格 Steve Guttenberg 饰)、高塔等六人组以及卡拉汉教官再次受命返回学校。与此同时,昔日的教官哈里上尉担心志愿者会影响警察们的工作,对拉萨雷的计划唱起了反调。警察学校方面的各毕业生迅速开展志愿者征集,引发哈里粗暴执法的滑板少年等人纷纷加入,全民警察计划正式启动,然而拉萨雷因为要参加国际警察会议,学校由哈里暂时接管。持反对态度的哈里自然不会给马哈尼等教官和志愿者们好果子吃,然而一次越狱事件,令志愿者们很快发挥了所学……

  1. General

  2. Unique ID : 291963314528463086744262696834270584690 (0xDBA616C971AA61680D40DA7D75B15F72)

  3. Complete name : Police.Academy.4.Citizens.on.Patrol.1987.1080p.BluRay.x264.DTS.1.0-PTH.mkv

  4. Format : Matroska

  5. Format version : Version 4

  6. File size : 8.46 GiB

  7. Duration : 1 h 27 min

  8. Overall bit rate : 13.9 Mb/s

  9. Movie name : Police Academy 4: Citizens on Patrol

  10. Encoded date : UTC 2021-07-04 14:00:21

  11. Writing application : mkvmerge v58.0.0 ('Supper's Ready') 64-bit

  12. Writing library : libebml v1.4.2 + libmatroska v1.6.4

  13. Cover : Yes

  14. Attachments : cover.jpg


  15. Video

  16. ID : 1

  17. Format : AVC

  18. Format/Info : Advanced Video Codec

  19. Format profile : High@L4.1

  20. Format settings : CABAC / 4 Ref Frames

  21. Format settings, CABAC : Yes

  22. Format settings, Reference frames : 4 frames

  23. Codec ID : V_MPEG4/ISO/AVC

  24. Duration : 1 h 27 min

  25. Bit rate : 13.0 Mb/s

  26. Width : 1 920 pixels

  27. Height : 1 080 pixels

  28. Display aspect ratio : 16:9

  29. Frame rate mode : Constant

  30. Frame rate : 23.976 (24000/1001/53354) FPS

  31. Color space : YUV

  32. Chroma subsampling : 4:2:0

  33. Bit depth : 8 bits

  34. Scan type : Progressive

  35. Bits/(Pixel*Frame) : 0.262

  36. Stream size : 7.95 GiB (94%)

  37. Writing library : x264 core 161 r3018+53 18a1d6c t_mod_New [(8 & 10)-bit@all X86_64]

  38. Encoding settings : cabac=1 / ref=4 / deblock=1:-3:-3 / analyse=0x3:0x133 / me=umh / subme=11 / psy=1 / fade_compensate=0.00 / psy_rd=1.00:0.00 / mixed_ref=1 / me_range=48 / chroma_me=1 / trellis=2 / 8x8dct=1 / cqm=0 / deadzone=21,11 / fast_pskip=0 / chroma_qp_offset=-3 / threads=9 / lookahead_threads=2 / sliced_threads=0 / nr=0 / decimate=0 / interlaced=0 / NTMzNTQ= / bluray_compat=0 / constrained_intra=0 / fgo=0 / bframes=11 / b_pyramid=2 / b_adapt=2 / b_bias=0 / direct=3 / weightb=1 / open_gop=0 / weightp=2 / keyint=240 / keyint_min=1 / NTMzNTQ=uuDQuD2mJt9fsCf / scenecut=40 / intra_refresh=0 / rc_lookahead=72 / rc=crf / mbtree=0 / crf=20.0000 / qcomp=0.65 / qpmin=0:0:0 / qpmax=69:69:69 / qpstep=4 / vbv_maxrate=62500 / vbv_bufsize=78125 / crf_max=0.0 / nal_hrd=none / filler=0 / NTMzNTQ=LmsMAP37EqsCpk / ip_ratio=1.40 / pb_ratio=1.30 / aq=3:0.70 / aq-sensitivity=10.00 / aq-factor=1.00:1.00:1.00 / aq2=0 / aq3=0

  39. Language : English

  40. Default : Yes

  41. Forced : No


  42. Audio

  43. ID : 2

  44. ID in the original source medium : 4352 (0x1100)

  45. Format : DTS

  46. Format/Info : Digital Theater Systems

  47. Codec ID : A_DTS

  48. Duration : 1 h 27 min

  49. Bit rate mode : Constant

  50. Bit rate : 768 kb/s

  51. Channel(s) : 1 channel

  52. Channel layout : C

  53. Sampling rate : 48.0 kHz

  54. Frame rate : 93.750 FPS (512 SPF)

  55. Bit depth : 24 bits

  56. Compression mode : Lossy

  57. Stream size : 479 MiB (6%)

  58. Language : English

  59. Default : Yes

  60. Forced : No

  61. Original source medium : Blu-ray


  62. Text #1

  63. ID : 3

  64. ID in the original source medium : 4621 (0x120D)

  65. Format : PGS

  66. Muxing mode : zlib

  67. Codec ID : S_HDMV/PGS

  68. Codec ID/Info : Picture based subtitle format used on BDs/HD-DVDs

  69. Duration : 1 h 21 min

  70. Bit rate : 41.3 kb/s

  71. Count of elements : 1623

  72. Stream size : 23.9 MiB (0%)

  73. Title : chs&eng

  74. Language : Chinese

  75. Default : Yes

  76. Forced : No

  77. Original source medium : Blu-ray


  78. Text #2

  79. ID : 4

  80. ID in the original source medium : 4622 (0x120E)

  81. Format : PGS

  82. Muxing mode : zlib

  83. Codec ID : S_HDMV/PGS

  84. Codec ID/Info : Picture based subtitle format used on BDs/HD-DVDs

  85. Duration : 1 h 21 min

  86. Bit rate : 41.5 kb/s

  87. Count of elements : 1623

  88. Stream size : 24.1 MiB (0%)

  89. Title : cht&eng

  90. Language : Chinese

  91. Default : No

  92. Forced : No

  93. Original source medium : Blu-ray


  94. Text #3

  95. ID : 5

  96. ID in the original source medium : 4623 (0x120F)

  97. Format : PGS

  98. Muxing mode : zlib

  99. Codec ID : S_HDMV/PGS

  100. Codec ID/Info : Picture based subtitle format used on BDs/HD-DVDs

  101. Duration : 1 h 21 min

  102. Bit rate : 25.2 kb/s

  103. Count of elements : 1623

  104. Stream size : 14.6 MiB (0%)

  105. Title : chs

  106. Language : Chinese

  107. Default : No

  108. Forced : No

  109. Original source medium : Blu-ray


  110. Text #4

  111. ID : 6

  112. ID in the original source medium : 4624 (0x1210)

  113. Format : PGS

  114. Muxing mode : zlib

  115. Codec ID : S_HDMV/PGS

  116. Codec ID/Info : Picture based subtitle format used on BDs/HD-DVDs

  117. Duration : 1 h 21 min

  118. Bit rate : 25.4 kb/s

  119. Count of elements : 1623

  120. Stream size : 14.7 MiB (0%)

  121. Title : cht

  122. Language : Chinese

  123. Default : No

  124. Forced : No

  125. Original source medium : Blu-ray


  126. Text #5

  127. ID : 7

  128. ID in the original source medium : 4609 (0x1201)

  129. Format : PGS

  130. Muxing mode : zlib

  131. Codec ID : S_HDMV/PGS

  132. Codec ID/Info : Picture based subtitle format used on BDs/HD-DVDs

  133. Duration : 1 h 26 min

  134. Bit rate : 31.6 kb/s

  135. Count of elements : 2112

  136. Stream size : 19.4 MiB (0%)

  137. Language : English

  138. Default : No

  139. Forced : No

  140. Original source medium : Blu-ray


  141. Menu

  142. 00:00:00.000 : Chapter 01

  143. 00:07:20.982 : Chapter 02

  144. 00:10:18.784 : Chapter 03

  145. 00:12:34.211 : Chapter 04

  146. 00:16:18.310 : Chapter 05

  147. 00:21:11.436 : Chapter 06

  148. 00:23:21.358 : Chapter 07

  149. 00:28:12.023 : Chapter 08

  150. 00:32:54.931 : Chapter 09

  151. 00:36:16.674 : Chapter 10

  152. 00:40:40.354 : Chapter 11

  153. 00:44:02.306 : Chapter 12

  154. 00:48:00.460 : Chapter 13

  155. 00:53:48.183 : Chapter 14

  156. 00:56:33.264 : Chapter 15

  157. 00:58:52.904 : Chapter 16

  158. 01:00:39.594 : Chapter 17

  159. 01:03:23.132 : Chapter 18

  160. 01:05:22.168 : Chapter 19

  161. 01:08:05.706 : Chapter 20

  162. 01:10:38.734 : Chapter 21

  163. 01:21:35.640 : Chapter 22



文件下载


除非特别注明,本文『警察学校4:全民警察[双语字幕]迅雷下载.Police.Academy.4.Citizens.on.Patrol.1987.1080p 8.46GB』来源于互联网机器人自动抓取,非本站原创。 浮游电影网不对本文拥有版权,如有侵犯,请联系邮箱:fuyouu#yandex.com[#换成@]投诉。我们会在15个工作日内删除。 但烦请转载时请标明出处:“本文转载于『浮游电影网』,原文地址:https://www.fuyouu.com/12905.html

评论吧骚年!

发表你的见解   

昵称*

E-mail*(建议输入,以便收到博主回复的提示邮件)

验证码*

您可以使用eMule或eMule Mod(Windows)、aMule(Win、Linux、Mac)等软件下载eD2k链接。。
eMule收藏集(.emulecollection)文件是您选中的所有链接的列表文件。eMule可以直接下载它们。
按住SHIFT键选择可以选中多个选择框。
可用文件名和大小选择器来选择文件。
文件名选择器帮您根据文件名称或后缀来选择文件。不分大小写。
符号使用:
和:空格( )、+
不包含:-
或:|
转义:一对英文引号("");
匹配开头:^
匹配结尾:$
例如:
选中所有名称中包含有“eMule”或“0.49c”字眼,但不包含有“exe”字眼的:emule|0.49c -exe
选中所有名称的开头是“eMule”,结尾是“0.49c”的:^emule 0.49c$
选中所有名称中带有“eMule 0.49c”的(必须是“eMule 0.49c”,中间没有别的字符,不能是“eMule fake 0.49c”),需要转义:"emule 0.49c"
大小选择器帮您根据文件大小选择文件。