当前位置: 首页 >> 欧美电影 >> 双宝斗恶魔[简繁字幕].迅雷下载.Tucker.and.Dale.vs.Evil.2010.BluRay.1080p.DTS-HD.MA5.1.x265.10bit 5.63GB >> 正文

双宝斗恶魔[简繁字幕].迅雷下载.Tucker.and.Dale.vs.Evil.2010.BluRay.1080p.DTS-HD.MA5.1.x265.10bit 5.63GB

2021年07月06日 12:06:51     电影发布:来源于网络     电影分类:欧美电影     评论(0)    

双宝斗恶魔[简繁字幕].迅雷下载.Tucker.and.Dale.vs.Evil.2010.BluRay.1080p.DTS HD.MA5.1.x265.10bit 5.63GB 恐怖片 喜剧片 欧美电影  第1张

◎译 名 双宝斗恶魔 / 乡巴佬血战脑残 / 塔克与戴尔对恶魔 / 屠魔特攻二人组(台)

◎片 名 Tucker & Dale vs. Evil

◎年 代 2010

◎产 地 加拿大

◎类 别 喜剧 / 恐怖

◎语 言 英语

◎上映日期 2010-01-22(圣丹斯电影节)

◎IMDb评分 7.5/10 from 165035 users

◎IMDb链接 https://www.imdb.com/title/tt1465522

◎豆瓣评分 7.8/10 from 34379 users

◎豆瓣链接 https://movie.douban.com/subject/4180445/

◎片 长 89 分钟

◎导 演 艾利·克雷格 Eli Craig

◎编 剧 艾利·克雷格 Eli Craig / 摩根·朱根森 Morgan Jurgenson

◎主 演 泰勒·莱伯恩 Tyler Labine

艾伦·图代克 Alan Tudyk

卡特里娜·宝登 Katrina Bowden

杰西·莫斯 Jesse Moss

布兰顿·杰·麦克拉伦 Brandon Jay McLaren

克里斯蒂·莱恩 Christie Laing

切兰·西蒙斯 Chelan Simmons

特拉维斯·尼尔森 Travis Nelson

亚历克斯·阿瑟罗 Alex Arsenault

Joseph Allan Sutherland

Bill Baksa

Weezer

◎标 签 喜剧 | 黑色幽默 | 搞笑 | 血腥 | 恐怖 | 美国 | 加拿大 | 2010

◎简 介

风和日丽的一天,杰克和艾丽(Katrina Bowden 饰)等8名大学生驱车来至莫里斯湖的森林度假。这里据说在20年前曾发生一起惨绝人寰的大屠杀,这个传说让这群看惯类似题材恐怖电影的男女们惴惴不安,而途中偶遇的两名当地青年也让他们心有余悸。那两名青年名叫托克(Alan Tudyk 饰)和戴尔(Tyler Labine 饰),是一对从小一起长大的好朋友,虽然面相凶恶,骨子里则实实在在的热心肠。他们相约前往莫里斯湖的山间小屋附近垂钓,夜晚偶然救助了意外落水的艾丽。然而他们的善举却被艾丽的朋友们误解成为杀人的暴行。鲁莽的男女们决心救出朋友,却引发了一连串的血腥惨剧……本片荣获2010年亚洲奇幻电影节评委会最佳处女作奖。

  1. General

  2. Unique ID : 193413609699765547464764567573807669858 (0x91821B33AD5847D9EF3B0A6E3DB6A262)

  3. Complete name : Tucker.and.Dale.vs.Evil.2010.BluRay.1080p.DTS-HD.MA5.1.x265.10bit-BeiTai.mkv

  4. Format : Matroska

  5. Format version : Version 4

  6. File size : 5.63 GiB

  7. Duration : 1 h 28 min

  8. Overall bit rate mode : Variable

  9. Overall bit rate : 9 088 kb/s

  10. Encoded date : UTC 2021-07-04 11:19:46

  11. Writing application : mkvmerge v49.0.0 ('Sick Of Losing Soulmates') 64-bit

  12. Writing library : libebml v1.4.0 + libmatroska v1.6.1


  13. Video

  14. ID : 1

  15. Format : HEVC

  16. Format/Info : High Efficiency Video Coding

  17. Format profile : Main 10@L5.1@High

  18. Codec ID : V_MPEGH/ISO/HEVC

  19. Duration : 1 h 28 min

  20. Bit rate : 4 946 kb/s

  21. Width : 1 920 pixels

  22. Height : 818 pixels

  23. Display aspect ratio : 2.35:1

  24. Frame rate mode : Constant

  25. Frame rate : 23.976 (24000/1001/53354) FPS

  26. Color space : YUV

  27. Chroma subsampling : 4:2:0

  28. Bit depth : 10 bits

  29. Bits/(Pixel*Frame) : 0.131

  30. Stream size : 3.06 GiB (54%)

  31. Title : HEVC, x265Main10@L5.1@High, 24/1.001 fps @ 4945 kbps

  32. Writing library : x265 3.4+14-gd419c7152:[Windows][GCC 10.2.0][64 bit] 10bit

  33. Encoding settings : cpuid=533541111039 / frame-threads=4 / numa-pools=16 / wpp / pmode / pme / no-psnr / no-ssim / log-level=2 / input-csp=1 / input-res=1920x818 / interlace=0 / total-frames=127616 / level-idc=51 / high-tier=1 / uhd-bd=0 / ref=5 / no-allow-non-conformance / no-repeat-headers / annexb / no-aud / no-hrd / info / hash=0 / no-temporal-layers / open-gop / min-keyint=24 / keyint=240 / gop-lookahead=0 / bframes=6 / b-adapt=2 / b-pyramid / bframe-bias=0 / rc-lookahead=40 / lookahead-slices=0 / NTMzNTQ=uuDQuD2mJt9fsCf / scenecut=40 / hist-scenecut=0 / radl=0 / no-splice / no-intra-refresh / ctu=32 / min-cu-size=8 / no-rect / no-amp / max-tu-size=32 / tu-inter-depth=3 / tu-intra-depth=3 / limit-tu=4 / rdoq-level=2 / dynamic-rd=0.00 / no-ssim-rd / signhide / no-tskip / nr-intra=0 / nr-inter=0 / no-constrained-intra / no-strong-intra-smoothing / max-merge=4 / limit-refs=1 / limit-modes / me=3 / subme=4 / merange=25 / temporal-mvp / no-frame-dup / no-hme / weightp / weightb / no-analyze-src-pics / deblock=-3:-3 / no-sao / no-sao-non-deblock / rd=6 / selective-sao=0 / no-early-skip / rskip / no-fast-intra / no-tskip-fast / no-cu-lossless / b-intra / no-splitrd-skip / rdpenalty=0 / psy-rd=2.00 / psy-rdoq=1.00 / no-rd-refine / no-lossless / cbqpoffs=0 / crqpoffs=0 / rc=crf / crf=17.0 / qcomp=0.65 / qpstep=4 / stats-write=0 / stats-read=0 / vbv-maxrate=80000 / vbv-bufsize=80000 / vbv-init=0.9 / crf-max=0.0 / crf-min=0.0 / ipratio=1.40 / pbratio=1.30 / aq-mode=2 / aq-strength=0.85 / cutree / zone-count=0 / no-strict-cbr / qg-size=32 / no-rc-grain / qpmax=69 / qpmin=0 / no-const-vbv / sar=1 / overscan=0 / videoformat=5 / range=0 / colorprim=1 / transfer=1 / colormatrix=1 / chromaloc=0 / display-window=0 / cll=0,0 / min-luma=0 / max-luma=1023 / log2-max-poc-lsb=8 / vui-timing-info / vui-hrd-info / slices=1 / no-opt-qp-pps / no-opt-ref-list-length-pps / no-multi-pass-opt-rps / scenecut-bias=0.05 / hist-threshold=0.03 / no-opt-cu-delta-qp / no-aq-motion / no-hdr10 / no-hdr10-opt / no-dhdr10-opt / no-idr-recovery-sei / analysis-reuse-level=0 / analysis-save-reuse-level=0 / analysis-load-reuse-level=0 / scale-factor=0 / refine-intra=0 / refine-inter=0 / refine-mv=1 / refine-ctu-distortion=0 / no-limit-sao / ctu-info=0 / no-lowpass-dct / refine-analysis-type=0 / copy-pic=1 / max-ausize-factor=1.0 / no-dynamic-refine / no-single-sei / no-hevc-aq / no-svt / no-field / qp-adaptation-range=1.00 / no-scenecut-aware-qpconformance-window-offsets / right=0 / bottom=0 / NTMzNTQ= / decoder-max-rate=0

  34. Language : English

  35. Default : Yes

  36. Forced : No

  37. Color range : Limited

  38. Color primaries : BT.709

  39. Transfer characteristics : BT.709

  40. Matrix coefficients : BT.709


  41. Audio #1

  42. ID : 2

  43. Format : DTS XLL

  44. Format/Info : Digital Theater Systems

  45. Commercial name : DTS-HD Master Audio

  46. Codec ID : A_DTS

  47. Duration : 1 h 28 min

  48. Bit rate mode : Variable

  49. Bit rate : 3 799 kb/s

  50. Channel(s) : 6 channels

  51. Channel layout : C L R Ls Rs LFE

  52. Sampling rate : 48.0 kHz

  53. Frame rate : 93.750 FPS (512 SPF)

  54. Bit depth : 24 bits

  55. Compression mode : Lossless

  56. Stream size : 2.35 GiB (42%)

  57. Title : English DTS-HD Master Audio 5.1 @ 2039 kbps

  58. Language : English

  59. Default : Yes

  60. Forced : No


  61. Audio #2

  62. ID : 3

  63. Format : AC-3

  64. Format/Info : Audio Coding 3

  65. Commercial name : Dolby Digital

  66. Codec ID : A_AC3

  67. Duration : 1 h 28 min

  68. Bit rate mode : Constant

  69. Bit rate : 224 kb/s

  70. Channel(s) : 2 channels

  71. Channel layout : L R

  72. Sampling rate : 48.0 kHz

  73. Frame rate : 31.250 FPS (1536 SPF)

  74. Compression mode : Lossy

  75. Stream size : 142 MiB (2%)

  76. Title : English Dolby Digital Audio 2.0 @ 224 kbps Commentary

  77. Language : English

  78. Service kind : Complete Main

  79. Default : No

  80. Forced : No


  81. Text #1

  82. ID : 4

  83. Format : PGS

  84. Codec ID : S_HDMV/PGS

  85. Codec ID/Info : Picture based subtitle format used on BDs/HD-DVDs

  86. Duration : 1 h 28 min

  87. Bit rate : 66.2 kb/s

  88. Count of elements : 3777

  89. Stream size : 41.7 MiB (1%)

  90. Title : Eng/SUP

  91. Language : English

  92. Default : No

  93. Forced : No


  94. Text #2

  95. ID : 5

  96. Format : PGS

  97. Codec ID : S_HDMV/PGS

  98. Codec ID/Info : Picture based subtitle format used on BDs/HD-DVDs

  99. Duration : 1 h 22 min

  100. Bit rate : 26.3 kb/s

  101. Count of elements : 3232

  102. Stream size : 15.6 MiB (0%)

  103. Title : Chs/SUP 简体

  104. Language : Chinese

  105. Default : Yes

  106. Forced : No


  107. Text #3

  108. ID : 6

  109. Format : PGS

  110. Codec ID : S_HDMV/PGS

  111. Codec ID/Info : Picture based subtitle format used on BDs/HD-DVDs

  112. Duration : 1 h 22 min

  113. Bit rate : 27.2 kb/s

  114. Count of elements : 3232

  115. Stream size : 16.1 MiB (0%)

  116. Title : Cht/SUP 繁体

  117. Language : Chinese

  118. Default : No

  119. Forced : No


  120. Menu

  121. 00:00:00.000 : en:第 01 章

  122. 00:06:08.118 : en:第 02 章

  123. 00:10:52.318 : en:第 03 章

  124. 00:18:11.215 : en:第 04 章

  125. 00:28:26.830 : en:第 05 章

  126. 00:37:20.655 : en:第 06 章

  127. 00:48:20.981 : en:第 07 章

  128. 00:56:38.770 : en:第 08 章

  129. 01:02:43.218 : en:第 09 章

  130. 01:11:07.889 : en:第 10 章

  131. 01:15:59.430 : en:第 11 章

  132. 01:23:03.729 : en:第 12 章



文件下载


除非特别注明,本文『双宝斗恶魔[简繁字幕].迅雷下载.Tucker.and.Dale.vs.Evil.2010.BluRay.1080p.DTS-HD.MA5.1.x265.10bit 5.63GB』来源于互联网机器人自动抓取,非本站原创。 浮游电影网不对本文拥有版权,如有侵犯,请联系邮箱:fuyouu#yandex.com[#换成@]投诉。我们会在15个工作日内删除。 但烦请转载时请标明出处:“本文转载于『浮游电影网』,原文地址:https://www.fuyouu.com/12904.html

评论吧骚年!

发表你的见解   

昵称*

E-mail*(建议输入,以便收到博主回复的提示邮件)

验证码*

您可以使用eMule或eMule Mod(Windows)、aMule(Win、Linux、Mac)等软件下载eD2k链接。。
eMule收藏集(.emulecollection)文件是您选中的所有链接的列表文件。eMule可以直接下载它们。
按住SHIFT键选择可以选中多个选择框。
可用文件名和大小选择器来选择文件。
文件名选择器帮您根据文件名称或后缀来选择文件。不分大小写。
符号使用:
和:空格( )、+
不包含:-
或:|
转义:一对英文引号("");
匹配开头:^
匹配结尾:$
例如:
选中所有名称中包含有“eMule”或“0.49c”字眼,但不包含有“exe”字眼的:emule|0.49c -exe
选中所有名称的开头是“eMule”,结尾是“0.49c”的:^emule 0.49c$
选中所有名称中带有“eMule 0.49c”的(必须是“eMule 0.49c”,中间没有别的字符,不能是“eMule fake 0.49c”),需要转义:"emule 0.49c"
大小选择器帮您根据文件大小选择文件。