当前位置: 首页 >> 海外电影 >> 马柔本宅秘事[中文字幕].Marrowbone.2017.2160p.HDR.UHD.BluRay.TrueHD.7.1.Atmos.x265-10bit-迅雷下载 17.40GB >> 正文

马柔本宅秘事[中文字幕].Marrowbone.2017.2160p.HDR.UHD.BluRay.TrueHD.7.1.Atmos.x265-10bit-迅雷下载 17.40GB

2021年07月05日 11:35:20     电影发布:来源于网络     电影分类:海外电影     评论(0)    

马柔本宅秘事[中文字幕].Marrowbone.2017.2160p.HDR.UHD.BluRay.TrueHD.7.1.Atmos.x265 10bit 迅雷下载 17.40GB 恐怖片 惊悚片 剧情片 海外电影  第1张

◎译 名 马柔本宅秘事/Marrowbone/The Secret of Marrowbone/诡影(台)/马柔本宅密事/髓骨

◎片 名 El secreto de Marrowbone

◎年 代 2017

◎产 地 西班牙,美国

◎类 别 剧情 / 惊悚 / 恐怖

◎语 言 英语

◎上映日期 2017-09-11(多伦多电影节) / 2017-10-27(西班牙)

◎豆瓣评分 7.5/10 from 23085 users

◎豆瓣链接 https://movie.douban.com/subject/26961821/

◎片 长 110分钟

◎导 演 塞尔希奥·G·桑切斯 Sergio G. Sánchez

◎编 剧 塞尔希奥·G·桑切斯 Sergio G. Sánchez

◎主 演 乔治·麦凯 George MacKay

安雅·泰勒-乔伊 Anya Taylor-Joy

查理·希顿 Charlie Heaton

米娅·高斯 Mia Goth

马修·斯塔格 Matthew Stagg

妮可拉·哈里森 Nicola Harrison

凯尔·索列尔 Kyle Soller

汤姆·费舍尔 Tom Fisher

玛拉·凯瑟琳·皮尔斯 Myra Kathryn Pearse

保罗·杰森 Paul Jesson

罗伯特·奈尔恩 Robert Nairne

劳拉·布鲁克 Laura Brook

◎标 签 惊悚 | 悬疑 | 恐怖 | 西班牙 | 温情 | 剧情 | 人性 | 亲情

◎简 介

为了躲避一些未知的东西,母亲带着四个孩子住进了一个偏僻的房子里。母亲病故后,在兄弟四人的努力下,他们争取到了房子的产权。最大的孩子也开始找到了自己的爱情,但一帆风顺的生活下,实则暗藏凶机。最小的弟弟一直声称房间里面存在鬼魂,其他三人也似乎承认此事,但都没人点破。

故事的开头要从四人的父亲说起,这其中包含很多阴暗和不愉快的事情。虐童、弑父、藏尸、禁闭,其中的隐情终究会被他人打破……

◎获奖情况

第32届西班牙戈雅奖 ?(2018)

最佳新人导演(提名) 塞尔希奥·G·桑切斯

第39届伦敦影评人协会奖 ?(2019)

年度英国/爱尔兰小演员(提名) 安雅·泰勒-乔伊

第5届豆瓣电影年度榜单 ?(2018)

评分最高的恐怖/惊悚片(提名)

  1. General

  2. Unique ID : 87694017744234625788553512390100198655 (0x41F940E385E013726A61C3FB7D2324FF)

  3. Complete name : Marrowbone.2017.2160p.HDR.UHD.BluRay.TrueHD.7.1.Atmos.x265-10bit-HDS.mkv

  4. Format : Matroska

  5. Format version : Version 4

  6. File size : 17.4 GiB

  7. Duration : 1 h 50 min

  8. Overall bit rate mode : Variable

  9. Overall bit rate : 22.6 Mb/s

  10. Movie name : Marrowbone 2017 2160p HDR UHD BluRay TrueHD 7.1 Atmos x265-10bit-HDS

  11. Encoded date : UTC 2021-07-01 05:25:31

  12. Writing application : mkvmerge v38.0.0 ('The Silent Type') 64-bit

  13. Writing library : libebml v1.3.9 + libmatroska v1.5.2


  14. Video

  15. ID : 1

  16. Format : HEVC

  17. Format/Info : High Efficiency Video Coding

  18. Format profile : Main 10@L5.1@High

  19. HDR format : SMPTE ST 2086, HDR10 compatible

  20. Codec ID : V_MPEGH/ISO/HEVC

  21. Duration : 1 h 50 min

  22. Bit rate : 18.7 Mb/s

  23. Width : 3 840 pixels

  24. Height : 2 160 pixels

  25. Display aspect ratio : 16:9

  26. Frame rate mode : Constant

  27. Frame rate : 23.976 (24000/1001/53354) FPS

  28. Color space : YUV

  29. Chroma subsampling : 4:2:0

  30. Bit depth : 10 bits

  31. Bits/(Pixel*Frame) : 0.094

  32. Stream size : 14.4 GiB (83%)

  33. Title : veryzayin@HDSky

  34. Writing library : x265 - H.265/HEVC codec

  35. Default : Yes

  36. Forced : No

  37. Color range : Limited

  38. Color primaries : BT.2020

  39. Transfer characteristics : PQ

  40. Matrix coefficients : BT.2020 non-constant

  41. Mastering display color primaries : Display P3

  42. Mastering display luminance : min: 0.0020 cd/m2, max: 1000 cd/m2

  43. Maximum Content Light Level : 739 cd/m2

  44. Maximum Frame-Average Light Level : 331 cd/m2


  45. Audio

  46. ID : 2

  47. Format : MLP FBA 16-ch

  48. Format/Info : Meridian Lossless Packing FBA with 16-channel presentation

  49. Commercial name : Dolby TrueHD with Dolby Atmos

  50. Codec ID : A_TRUEHD

  51. Duration : 1 h 50 min

  52. Bit rate mode : Variable

  53. Bit rate : 3 792 kb/s

  54. Maximum bit rate : 7 902 kb/s

  55. Channel(s) : 8 channels

  56. Channel layout : L R C LFE Ls Rs Lb Rb

  57. Sampling rate : 48.0 kHz

  58. Frame rate : 1 200.000 FPS (40 SPF)

  59. Compression mode : Lossless

  60. Stream size : 2.92 GiB (17%)

  61. Title : English

  62. Language : English

  63. Default : Yes

  64. Forced : No

  65. Number of dynamic objects : 11

  66. Bed channel count : 1 channel

  67. Bed channel configuration : LFE


  68. Text #1

  69. ID : 3

  70. Format : PGS

  71. Muxing mode : zlib

  72. Codec ID : S_HDMV/PGS

  73. Codec ID/Info : Picture based subtitle format used on BDs/HD-DVDs

  74. Duration : 1 h 42 min

  75. Bit rate : 16.9 kb/s

  76. Count of elements : 1912

  77. Stream size : 12.3 MiB (0%)

  78. Title : CHS

  79. Language : Chinese

  80. Default : Yes

  81. Forced : No


  82. Text #2

  83. ID : 4

  84. Format : PGS

  85. Muxing mode : zlib

  86. Codec ID : S_HDMV/PGS

  87. Codec ID/Info : Picture based subtitle format used on BDs/HD-DVDs

  88. Duration : 1 h 42 min

  89. Bit rate : 17.7 kb/s

  90. Count of elements : 1912

  91. Stream size : 12.9 MiB (0%)

  92. Title : CHT

  93. Language : Chinese

  94. Default : No

  95. Forced : No


  96. Menu

  97. 00:00:00.000 : en:Chapter 01

  98. 00:07:19.147 : en:Chapter 02

  99. 00:16:22.648 : en:Chapter 03

  100. 00:24:34.014 : en:Chapter 04

  101. 00:32:18.770 : en:Chapter 05

  102. 00:42:47.648 : en:Chapter 06

  103. 00:49:55.618 : en:Chapter 07

  104. 00:56:09.908 : en:Chapter 08

  105. 01:04:45.882 : en:Chapter 09

  106. 01:10:59.463 : en:Chapter 10

  107. 01:19:01.737 : en:Chapter 11

  108. 01:30:06.443 : en:Chapter 12


文件下载


除非特别注明,本文『马柔本宅秘事[中文字幕].Marrowbone.2017.2160p.HDR.UHD.BluRay.TrueHD.7.1.Atmos.x265-10bit-迅雷下载 17.40GB』来源于互联网机器人自动抓取,非本站原创。 浮游电影网不对本文拥有版权,如有侵犯,请联系邮箱:fuyouu#yandex.com[#换成@]投诉。我们会在15个工作日内删除。 但烦请转载时请标明出处:“本文转载于『浮游电影网』,原文地址:https://www.fuyouu.com/12888.html

评论吧骚年!

发表你的见解   

昵称*

E-mail*(建议输入,以便收到博主回复的提示邮件)

验证码*

您可以使用eMule或eMule Mod(Windows)、aMule(Win、Linux、Mac)等软件下载eD2k链接。。
eMule收藏集(.emulecollection)文件是您选中的所有链接的列表文件。eMule可以直接下载它们。
按住SHIFT键选择可以选中多个选择框。
可用文件名和大小选择器来选择文件。
文件名选择器帮您根据文件名称或后缀来选择文件。不分大小写。
符号使用:
和:空格( )、+
不包含:-
或:|
转义:一对英文引号("");
匹配开头:^
匹配结尾:$
例如:
选中所有名称中包含有“eMule”或“0.49c”字眼,但不包含有“exe”字眼的:emule|0.49c -exe
选中所有名称的开头是“eMule”,结尾是“0.49c”的:^emule 0.49c$
选中所有名称中带有“eMule 0.49c”的(必须是“eMule 0.49c”,中间没有别的字符,不能是“eMule fake 0.49c”),需要转义:"emule 0.49c"
大小选择器帮您根据文件大小选择文件。