当前位置: 首页 >> 欧美电影 >> 我很在乎[中文字幕].I.Care.a.Lot.2020.1080p.BluRay.DTS.x265-10bit-迅雷下载 5.24GB >> 正文

我很在乎[中文字幕].I.Care.a.Lot.2020.1080p.BluRay.DTS.x265-10bit-迅雷下载 5.24GB

2021年07月05日 11:34:05     电影发布:来源于网络     电影分类:欧美电影     评论(0)    

我很在乎[中文字幕].I.Care.a.Lot.2020.1080p.BluRay.DTS.x265 10bit 迅雷下载 5.24GB 喜剧片 犯罪片 惊悚片 欧美电影 第1张

◎译 名 我很在乎/完美监护(台)/完美监护人(港)/诈欺女王(台)

◎片 名 I Care a Lot

◎年 代 2020

◎产 地 英国

◎类 别 喜剧 / 惊悚 / 犯罪

◎语 言 英语

◎上映日期 2020-09-12(多伦多电影节) / 2021-02-19(美国网络)

◎豆瓣评分 6.3/10 from 14017 users

◎豆瓣链接 https://movie.douban.com/subject/30482481/

◎片 长 118分钟

◎导 演 J·布莱克森 J Blakeson

◎编 剧 J·布莱克森 J Blakeson

◎主 演 裴淳华 Rosamund Pike

彼特·丁拉基 Peter Dinklage

艾莎·冈萨雷斯 Eiza González

黛安·韦斯特 Dianne Wiest

克里斯·梅西纳 Chris Messina

小伊塞亚·维特洛克 Isiah Whitlock Jr.

梅肯·布莱尔 Macon Blair

艾丽西亚·维特 Alicia Witt

达米安·杨 Damian Young

尼古拉斯·罗根 Nicholas Logan

利兹·恩格 Liz Eng

乔治亚·莱曼 Georgia Lyman

克里斯·埃弗里特 Chris Everett

何塞·冈斯·阿尔维斯 Jose Guns Alves

凯文·芬内西 Kevin Fennessy

珍妮尔·费格利 Janelle Feigley

杰米·加扎里安 Jamie Ghazarian

阿德里安·M·蒙波因特 Adrian M. Mompoint

斯科特·麦克纳里 Scoot McNairy

◎标 签 犯罪 | 美国 | 剧情 | Netflix | 英国 | 悬疑 | 2021 | 喜剧

◎简 介

玛拉(裴淳华 Rosamund Pike 饰)经营着一家监护人公司,她专门寻找身体情况欠佳同时又无依无靠的老年人下手,通过并不是那么合法的手段令自己成为他们的法定监护人,将他们送进疗养院,之后便可接手和变卖他们的财产和房产,再将所得据为己有。

某日,玛拉将下一个“吞噬”的目标放在了一位名叫珍妮弗(黛安娜·维斯特 Dianne Wiest 饰)的老太太身上,经调查,珍妮弗没有任何的亲人,同时又拥有着价值不菲的遗产,简直就是他们的最佳“肥羊”。在一番操作之后,珍妮弗被没收手机关进了疗养院,但此时的玛拉和她的恋人兼合伙人弗兰(艾莎·冈萨雷斯 Eiza González 饰)并不知道的是,她们惹上了一个不该惹,也不能惹的人。

◎获奖情况

第78届金球奖 ?(2021)

电影类音乐/喜剧片最佳女主角 裴淳华

第71届美国剪辑工会奖 ?(2021)

音乐/喜剧片最佳剪辑(提名) 马克·埃克斯利

  1. General

  2. Unique ID : 249185370753606302052991132748710115145 (0xBB775B523F955E4B786BFCEA7B2F7749)

  3. Complete name : I.Care.a.Lot.2020.1080p.BluRay.DTS.x265-10bit-HDS.mkv

  4. Format : Matroska

  5. Format version : Version 4

  6. File size : 5.24 GiB

  7. Duration : 1 h 58 min

  8. Overall bit rate : 6 328 kb/s

  9. Movie name : I Care a Lot 2020 1080p BluRay DTS x265-10bit-HDS

  10. Encoded date : UTC 2021-07-04 01:57:12

  11. Writing application : mkvmerge v38.0.0 ('The Silent Type') 64-bit

  12. Writing library : libebml v1.3.9 + libmatroska v1.5.2


  13. Video

  14. ID : 1

  15. Format : HEVC

  16. Format/Info : High Efficiency Video Coding

  17. Format profile : Main 10@L5.1@High

  18. Codec ID : V_MPEGH/ISO/HEVC

  19. Duration : 1 h 58 min

  20. Bit rate : 5 511 kb/s

  21. Width : 1 920 pixels

  22. Height : 804 pixels

  23. Display aspect ratio : 2.40:1

  24. Frame rate mode : Constant

  25. Frame rate : 24.000 FPS

  26. Color space : YUV

  27. Chroma subsampling : 4:2:0

  28. Bit depth : 10 bits

  29. Bits/(Pixel*Frame) : 0.149

  30. Stream size : 4.56 GiB (87%)

  31. Title : howfuckedareyounow@HDSky

  32. Writing library : x265 - H.265/HEVC codec

  33. Default : Yes

  34. Forced : No


  35. Audio

  36. ID : 2

  37. Format : DTS

  38. Format/Info : Digital Theater Systems

  39. Codec ID : A_DTS

  40. Duration : 1 h 58 min

  41. Bit rate mode : Constant

  42. Bit rate : 768 kb/s

  43. Channel(s) : 6 channels

  44. Channel layout : C L R Ls Rs LFE

  45. Sampling rate : 48.0 kHz

  46. Frame rate : 93.750 FPS (512 SPF)

  47. Bit depth : 24 bits

  48. Compression mode : Lossy

  49. Stream size : 651 MiB (12%)

  50. Title : English

  51. Language : English

  52. Default : Yes

  53. Forced : No


  54. Text #1

  55. ID : 3

  56. Format : PGS

  57. Muxing mode : zlib

  58. Codec ID : S_HDMV/PGS

  59. Codec ID/Info : Picture based subtitle format used on BDs/HD-DVDs

  60. Duration : 1 h 57 min

  61. Bit rate : 30.9 kb/s

  62. Count of elements : 2560

  63. Stream size : 25.8 MiB (0%)

  64. Title : CHS

  65. Language : Chinese

  66. Default : Yes

  67. Forced : No


  68. Text #2

  69. ID : 4

  70. Format : PGS

  71. Muxing mode : zlib

  72. Codec ID : S_HDMV/PGS

  73. Codec ID/Info : Picture based subtitle format used on BDs/HD-DVDs

  74. Duration : 1 h 57 min

  75. Bit rate : 31.6 kb/s

  76. Count of elements : 2560

  77. Stream size : 26.5 MiB (0%)

  78. Title : CHT

  79. Language : Chinese

  80. Default : No

  81. Forced : No


  82. Text #3

  83. ID : 5

  84. Format : PGS

  85. Muxing mode : zlib

  86. Codec ID : S_HDMV/PGS

  87. Codec ID/Info : Picture based subtitle format used on BDs/HD-DVDs

  88. Duration : 1 h 51 min

  89. Bit rate : 34.7 kb/s

  90. Count of elements : 2460

  91. Stream size : 27.7 MiB (1%)

  92. Title : ENG

  93. Language : English

  94. Default : No

  95. Forced : No


  96. Menu

  97. 00:00:00.000 : en:Chapter 01

  98. 00:10:45.917 : en:Chapter 02

  99. 00:15:34.917 : en:Chapter 03

  100. 00:28:02.500 : en:Chapter 04

  101. 00:36:55.333 : en:Chapter 05

  102. 00:48:09.500 : en:Chapter 06

  103. 01:00:23.458 : en:Chapter 07

  104. 01:12:57.667 : en:Chapter 08

  105. 01:22:13.083 : en:Chapter 09

  106. 01:28:46.917 : en:Chapter 10

  107. 01:41:40.875 : en:Chapter 11

  108. 01:48:08.042 : en:Chapter 12



文件下载


除非特别注明,本文『我很在乎[中文字幕].I.Care.a.Lot.2020.1080p.BluRay.DTS.x265-10bit-迅雷下载 5.24GB』来源于互联网机器人自动抓取,非本站原创。 浮游电影网不对本文拥有版权,如有侵犯,请联系邮箱:fuyouu#yandex.com[#换成@]投诉。我们会在15个工作日内删除。 但烦请转载时请标明出处:“本文转载于『浮游电影网』,原文地址:https://www.fuyouu.com/12887.html

评论吧骚年!

发表你的见解   

昵称*

E-mail*(建议输入,以便收到博主回复的提示邮件)

验证码*

您可以使用eMule或eMule Mod(Windows)、aMule(Win、Linux、Mac)等软件下载eD2k链接。。
eMule收藏集(.emulecollection)文件是您选中的所有链接的列表文件。eMule可以直接下载它们。
按住SHIFT键选择可以选中多个选择框。
可用文件名和大小选择器来选择文件。
文件名选择器帮您根据文件名称或后缀来选择文件。不分大小写。
符号使用:
和:空格( )、+
不包含:-
或:|
转义:一对英文引号("");
匹配开头:^
匹配结尾:$
例如:
选中所有名称中包含有“eMule”或“0.49c”字眼,但不包含有“exe”字眼的:emule|0.49c -exe
选中所有名称的开头是“eMule”,结尾是“0.49c”的:^emule 0.49c$
选中所有名称中带有“eMule 0.49c”的(必须是“eMule 0.49c”,中间没有别的字符,不能是“eMule fake 0.49c”),需要转义:"emule 0.49c"
大小选择器帮您根据文件大小选择文件。